VERSION	0.00.00	1.03.00
FES_MODE	0
BPM_DEF	190.000	190.000	190.000	190.000
MET_DEF	4	4
RESOLUTION	384
CLK_DEF	384
COMPATIBLE_CODE	MA2

BPM	0	0	190.000
MET	0	0	4	4
MET	25	0	4	2
MET	25	192	4	4

TAP	9	0	0
TAP	10	0	0
TAP	11	0	1
TAP	12	0	1
HLD	13	0	2	384
TAP	15	0	3
XTP	16	0	3
XTP	16	0	4
HLD	17	0	4	384
HLD	19	0	3	384
HLD	21	0	4	384
TAP	23	0	3
TAP	23	192	3
TAP	24	0	3
TAP	24	0	4
XTP	25	0	3
XTP	25	0	4
TAP	25	192	4
TAP	26	0	4
TAP	26	192	4
TAP	27	192	5
TAP	28	0	5
TAP	28	192	5
TAP	29	192	6
TAP	30	0	6
TAP	30	192	6
HLD	31	192	7	384
TAP	33	192	0
TAP	34	0	0
TAP	34	192	0
TAP	35	192	1
TAP	36	0	1
TAP	36	192	1
TAP	37	192	2
TAP	38	0	2
TAP	38	192	2
HLD	39	192	3	384
TTP	41	192	4	B	0	L1
TTP	42	192	3	B	0	L1
TTP	43	192	2	B	0	L1
TTP	44	192	1	B	0	L1
TTP	45	192	0	B	0	L1
TTP	46	192	7	B	0	L1
TTP	47	192	6	B	0	L1
TTP	48	192	5	B	0	L1
TTP	49	192	3	B	0	L1
TTP	49	192	4	B	0	L1
TTP	50	192	2	B	0	L1
TTP	50	192	5	B	0	L1
TTP	51	192	1	B	0	L1
TTP	51	192	6	B	0	L1
TTP	52	192	0	B	0	L1
TTP	52	192	7	B	0	L1
THO	53	192	0	1152	C	1	L1
TAP	57	192	7
TAP	58	0	7
TAP	58	192	7
TAP	58	288	7
TAP	59	0	7
TAP	59	192	6
TAP	60	0	6
TAP	60	192	6
TAP	60	288	6
TAP	61	0	6
TAP	61	192	5
TAP	62	0	5
TAP	62	192	4
TAP	63	0	4
TAP	63	192	3
TAP	63	288	3
TAP	64	0	3
XTP	64	192	3
XTP	64	192	4
TAP	65	192	3
TAP	66	0	3
TAP	66	192	3
TAP	66	288	3
TAP	67	0	3
TAP	67	192	2
TAP	68	0	2
TAP	68	192	2
TAP	68	288	2
TAP	69	0	2
TAP	69	192	1
TAP	70	0	1
TAP	70	192	0
TAP	71	0	0
TAP	71	192	7
TAP	71	288	7
TAP	72	0	7
TAP	72	192	0
TAP	72	288	0
TAP	73	0	0
STR	73	192	7
SI_	73	192	7	96	288	3
TAP	77	192	3
TAP	78	0	3
TAP	78	192	2
TAP	79	0	2
TAP	79	192	1
TAP	80	0	1
HLD	80	192	0	192
HLD	80	192	7	192
TAP	81	192	6
TAP	82	0	6
TAP	82	192	5
TAP	83	0	5
HLD	83	192	4	384
HLD	85	192	3	384
BRK	87	192	4
TAP	89	192	4
TAP	91	192	3
TAP	93	192	3
TAP	94	0	3
HLD	94	192	3	192
HLD	94	192	4	192
TAP	95	192	5
TAP	95	288	5
TAP	96	0	5
TAP	96	192	5
TAP	96	288	5
TAP	97	0	5
TAP	97	192	6
TAP	97	288	6
TAP	98	0	6
TAP	98	192	6
TAP	98	288	6
TAP	99	0	6
TAP	99	192	7
TAP	100	0	7
HLD	100	192	0	192
TAP	101	192	1
TAP	102	0	1
TAP	102	192	2
TAP	103	0	2
HLD	103	192	3	384
HLD	103	192	4	384
XTP	105	192	4
XTP	106	0	4
BRK	106	192	4
XTP	107	192	3
XTP	108	0	3
BRK	108	192	3
XTP	109	192	4
XTP	109	192	5
XTP	110	0	4
XTP	110	0	5
BRK	110	192	4
BRK	110	192	5
XTP	111	192	2
XTP	111	192	3
XTP	112	0	2
XTP	112	0	3
BRK	112	192	2
BRK	112	192	3
HLD	113	192	3	384
HLD	113	192	4	384
THO	115	192	0	672	C	1	L1

T_REC_TAP	96
T_REC_BRK	7
T_REC_XTP	18
T_REC_HLD	17
T_REC_XHO	0
T_REC_STR	1
T_REC_BST	0
T_REC_XST	0
T_REC_TTP	16
T_REC_THO	2
T_REC_SLD	1
T_REC_ALL	158
T_NUM_TAP	131
T_NUM_BRK	7
T_NUM_HLD	19
T_NUM_SLD	1
T_NUM_ALL	158
T_JUDGE_TAP	138
T_JUDGE_HLD	154
T_JUDGE_SLD	1
T_JUDGE_ALL	293
TTM_EACHPAIRS	14
TTM_SCR_TAP	65500
TTM_SCR_BRK	18200
TTM_SCR_HLD	19000
TTM_SCR_SLD	1500
TTM_SCR_ALL	104200
TTM_SCR_S	100400
TTM_SCR_SS	103500
TTM_RAT_ACV	10067

