VERSION	0.00.00	1.03.00
FES_MODE	0
BPM_DEF	140.000	140.000	140.000	140.000
MET_DEF	4	4
RESOLUTION	384
CLK_DEF	384
COMPATIBLE_CODE	MA2

BPM	0	0	140.000
MET	0	0	4	4
MET	19	0	4	2
MET	19	192	4	4

TTP	1	336	3	E	0	M1
TTP	1	352	3	B	0	M1
TTP	1	368	4	B	0	M1
TTP	2	0	5	E	0	M1
STR	2	96	7
SCL	2	96	7	96	96	4
BST	3	192	3
SI_	3	192	3	96	48	0
STR	4	0	7
SCL	4	0	7	96	96	4
BRK	4	288	0
BRK	4	336	1
BRK	5	0	2
BRK	5	48	3
TAP	5	240	5
TAP	5	264	4
STR	5	288	6
SLL	5	288	6	96	336	7
TAP	5	336	6
BRK	6	0	0
TTP	6	48	2	E	0	M1
TTP	6	120	1	E	0	M1
TTP	6	192	0	E	0	M1
TTP	6	264	2	B	0	M1
TTP	6	336	0	C	1	M1
BRK	7	96	0
BRK	7	144	0
TAP	7	240	5
TAP	7	264	4
STR	7	288	6
SXR	7	288	6	96	336	3
TAP	7	336	6
BRK	8	0	0
TTP	8	48	2	E	0	M1
TTP	8	120	1	E	0	M1
TTP	8	192	0	E	0	M1
TTP	8	264	2	B	0	M1
TTP	8	336	0	C	1	M1
BRK	9	96	0
BRK	9	144	0
TAP	9	240	5
TAP	9	264	4
STR	9	288	6
SLL	9	288	6	96	288	7
TAP	9	336	6
BRK	10	0	0
TTP	10	48	2	E	0	M1
TTP	10	120	1	E	0	M1
TTP	10	192	0	E	0	M1
TTP	10	264	2	B	0	M1
TTP	10	336	0	C	1	M1
BRK	11	96	0
BRK	11	144	0
TAP	11	240	4
STR	11	288	4
SI_	11	288	4	96	48	7
TAP	11	336	3
TAP	12	0	3
TAP	12	144	6
TAP	12	192	3
STR	12	240	3
SXR	12	240	3	96	144	3
TAP	12	288	4
HLD	12	336	4	240
TAP	13	192	3
TAP	13	288	2
XHO	13	288	5	288
TTP	14	0	0	C	0	M1
XST	14	192	4
SI_	14	192	4	96	48	0
XST	14	288	4
SCL	14	288	4	96	144	5
TAP	15	288	5
TAP	15	312	4
TAP	15	360	3
TAP	15	360	6
TAP	16	48	2
TAP	16	96	1
TAP	16	96	3
TAP	16	144	5
TAP	16	168	4
TAP	16	192	6
TAP	16	240	2
TAP	16	264	3
TAP	16	288	1
TAP	16	336	0
HLD	16	360	7	72
TAP	17	48	0
TAP	17	120	2
TAP	17	144	3
HLD	17	192	1	96
HLD	17	192	4	96
STR	17	336	5
SCR	17	336	5	96	96	2
TAP	17	360	4
XTP	18	192	0
BST	18	264	2
SXR	18	264	2	96	216	4
BRK	18	264	6
XTP	19	192	7
TAP	19	240	7
TAP	19	288	6
TAP	19	336	5
TAP	20	0	3
TAP	20	0	4
TAP	20	96	2
STR	20	96	5
SCL	20	96	5	96	48	2
TAP	20	144	1
STR	20	192	0
SI_	20	192	0	96	48	3
STR	20	288	0
SUL	20	288	0	96	48	4
TTP	21	48	1	E	0	M1
TTP	21	72	2	E	0	M1
TTP	21	96	3	E	0	M1
TAP	21	192	0
TAP	21	240	0
TAP	21	288	1
TAP	21	336	2
TAP	22	0	3
TAP	22	0	4
STR	22	96	2
SCR	22	96	2	96	48	5
TAP	22	96	5
TAP	22	144	6
STR	22	192	7
SI_	22	192	7	96	48	4
STR	22	288	7
SUR	22	288	7	96	48	3
TTP	23	48	7	E	0	M1
TTP	23	72	6	E	0	M1
TTP	23	96	5	E	0	M1
TAP	23	192	7
TAP	23	240	7
TAP	23	288	6
TAP	23	336	5
TAP	24	0	3
TAP	24	0	4
TAP	24	96	2
STR	24	96	5
SCL	24	96	5	96	48	2
TAP	24	144	1
STR	24	192	0
SI_	24	192	0	96	48	3
STR	24	288	0
SUL	24	288	0	96	48	4
TTP	25	48	1	E	0	M1
TTP	25	72	2	E	0	M1
TTP	25	96	3	E	0	M1
TAP	25	192	0
TAP	25	240	0
TAP	25	288	1
TAP	25	336	2
TAP	26	0	3
STR	26	48	4
SXL	26	48	4	96	96	4
STR	26	144	4
SXR	26	144	4	96	96	4
TTP	26	360	0	E	0	M1
STR	27	48	2
SCL	27	48	2	96	144	5
TAP	27	96	3
HLD	27	144	4	240
HLD	28	0	3	72
HLD	28	72	2	72
STR	28	144	1
SCL	28	144	1	96	48	6
STR	28	240	5
SCL	28	240	5	96	48	2
STR	28	336	1
SUR	28	336	1	96	48	5
STR	29	48	7
SCL	29	48	7	96	144	2
TAP	29	144	0
TTP	29	240	1	E	0	M1
TTP	29	288	0	E	0	M1
TAP	30	0	2
HLD	30	0	4	72
HLD	30	72	5	72
STR	30	144	6
SCR	30	144	6	96	48	1
STR	30	240	2
SCR	30	240	2	96	48	5
STR	30	336	6
SUL	30	336	6	96	48	2
STR	31	48	0
SCR	31	48	0	96	144	5
TAP	31	144	7
TTP	31	240	7	E	0	M1
TTP	31	288	0	E	0	M1
HLD	32	0	3	72
TAP	32	0	5
HLD	32	72	2	72
STR	32	144	1
SCL	32	144	1	96	48	6
STR	32	240	5
SCL	32	240	5	96	48	2
STR	32	336	1
SUR	32	336	1	96	48	5
TAP	33	48	6
HLD	33	144	0	96
HLD	33	144	7	96
BRK	33	288	0
BRK	33	288	7
TTP	34	0	6	B	0	M1
TTP	34	12	5	B	0	M1
TTP	34	24	5	E	0	M1
TTP	34	72	1	B	0	M1
TTP	34	84	2	B	0	M1
TTP	34	96	3	E	0	M1
TTP	34	144	0	C	1	M1
XTP	34	240	7
XTP	34	288	7
HLD	35	0	0	48
HLD	35	0	5	48
HLD	35	72	1	48
HLD	35	72	6	48
TAP	35	144	2
HLD	35	144	7	96
TAP	35	240	5
TAP	35	288	4
HLD	36	0	3	48
HLD	36	0	6	48
HLD	36	72	2	48
HLD	36	72	5	48
HLD	36	144	1	96
TAP	36	144	4
TAP	36	240	3
TAP	36	288	4
STR	36	336	5
SCR	36	336	5	96	48	0
STR	37	48	2
SCR	37	48	2	96	48	5
STR	37	144	7
SCR	37	144	7	96	48	2
TAP	37	240	4
TAP	37	288	4
HLD	38	0	3	48
HLD	38	0	6	48
HLD	38	72	2	48
HLD	38	72	5	48
HLD	38	144	1	96
TAP	38	144	4
TAP	38	240	7
TAP	38	288	7
BRK	39	0	0
BRK	39	0	6
BRK	39	72	3
BRK	39	72	4
BRK	39	144	1
BRK	39	144	5
HLD	39	240	3	48
HLD	39	240	6	48
HLD	39	312	2	48
HLD	39	312	4	48
HLD	40	0	4	48
HLD	40	0	6	48
HLD	40	72	1	48
HLD	40	72	3	48
TAP	40	144	2
TAP	40	144	6
HLD	40	240	1	48
HLD	40	240	7	48
HLD	40	312	0	48
HLD	40	312	5	48
HLD	41	0	4	48
HLD	41	0	6	48
HLD	41	72	1	48
HLD	41	72	3	48
TAP	41	144	0
STR	41	144	7
SCL	41	144	7	96	144	0
BRK	42	144	2
BRK	42	240	1
BRK	42	288	1
BRK	42	336	1
TAP	43	48	0
TAP	43	72	7
TAP	43	96	0
TAP	43	144	1
TAP	43	144	6
TAP	43	192	3
TAP	43	192	5
TAP	43	240	2
TAP	43	264	3
TAP	43	312	5
TAP	43	336	4
TAP	44	0	2
STR	44	0	3
SI_	44	0	3	96	48	7
BRK	44	96	1
XTP	44	96	3
STR	44	144	0
SSL	44	144	0	96	144	4
TAP	44	240	5
TAP	44	288	5
HLD	44	336	5	96
TAP	45	48	0
TAP	45	72	0
TAP	45	96	7
TAP	45	144	1
TAP	45	144	6
TAP	45	192	2
TAP	45	192	4
TAP	45	240	5
TAP	45	264	4
TAP	45	312	2
TAP	45	336	3
STR	46	0	4
SI_	46	0	4	96	48	0
TAP	46	0	5
XTP	46	96	4
BRK	46	96	6
STR	46	144	7
SXR	46	144	7	96	144	4
TAP	46	240	2
TAP	46	288	2
HLD	46	336	2	96
TAP	47	48	7
TAP	47	72	7
TAP	47	96	0
TAP	47	144	1
TAP	47	144	6
TAP	47	192	3
TAP	47	192	5
TAP	47	240	2
TAP	47	264	3
TAP	47	312	5
TAP	47	336	4
TAP	48	0	2
STR	48	0	3
SI_	48	0	3	96	48	7
BRK	48	96	1
XTP	48	96	3
HLD	48	144	0	96
TAP	48	240	7
STR	48	288	7
SCL	48	288	7	96	48	4
STR	49	0	0
SCR	49	0	0	96	48	3
TAP	49	96	7
TTP	49	192	4	E	0	M1
TTP	49	240	5	E	0	M1
TTP	49	288	6	E	0	M1
TTP	49	336	7	E	0	M1
TTP	50	0	0	E	0	M1
TTP	50	48	1	E	0	M1
TTP	50	96	2	E	0	M1
HLD	50	144	3	96
HLD	50	144	4	96
STR	50	288	3
SCL	50	288	3	96	48	0
STR	51	0	4
SCR	51	0	4	96	48	7
TAP	51	96	3
TTP	51	192	2	E	0	M1
TTP	51	240	3	E	0	M1
TTP	51	288	5	E	0	M1
TTP	51	336	6	E	0	M1
TTP	52	0	0	C	1	M1
BRK	52	96	0
BRK	52	96	7
BRK	52	144	0
BRK	52	144	7
BRK	52	192	1
BRK	52	192	6
TAP	52	240	5
TAP	52	264	4
TAP	52	312	4
TAP	52	360	7
TAP	53	24	7
TAP	53	72	1
TAP	53	96	3
TAP	53	144	2
TAP	53	144	4
TAP	53	192	1
TAP	53	192	5
TAP	53	240	2
TAP	53	264	3
TAP	53	312	3
TAP	53	360	0
TAP	54	24	0
TAP	54	72	6
TAP	54	96	4
TAP	54	144	3
TAP	54	144	5
TAP	54	192	2
TAP	54	192	6
TAP	54	240	5
TAP	54	264	4
TAP	54	312	4
TAP	54	360	7
TAP	55	24	7
TAP	55	72	1
TAP	55	96	3
TAP	55	144	2
TAP	55	144	4
TAP	55	192	1
STR	55	192	5
SI_	55	192	5	96	48	0
TAP	55	288	3
STR	55	336	2
SI_	55	336	2	96	48	7
TAP	56	48	6
STR	56	96	5
SI_	56	96	5	96	48	1
TAP	56	192	2
HLD	56	240	3	96
TAP	56	336	7
TAP	57	0	7
TAP	57	48	0
TAP	57	96	2
HLD	57	144	5	672
TTP	58	0	0	E	0	M1
TTP	58	12	7	B	0	M1
TTP	58	72	1	B	0	M1
TTP	58	84	2	E	0	M1
TTP	58	144	3	B	0	M1
TTP	58	156	4	E	0	M1
TAP	59	48	4
TAP	59	96	3
HLD	59	144	2	672
TTP	60	0	0	E	0	M1
TTP	60	12	0	B	0	M1
TTP	60	72	6	B	0	M1
TTP	60	84	6	E	0	M1
TTP	60	144	4	B	0	M1
TTP	60	156	4	E	0	M1
TAP	61	48	3
TAP	61	96	4
HLD	61	144	6	672
TTP	62	0	1	E	0	M1
TTP	62	12	1	B	0	M1
TTP	62	72	6	B	0	M1
TTP	62	84	5	B	0	M1
TTP	62	144	2	B	0	M1
TTP	62	156	3	E	0	M1
TAP	63	48	4
TAP	63	96	3
HLD	63	144	1	480
TTP	64	0	7	E	0	M1
TTP	64	12	6	B	0	M1
TTP	64	72	1	B	0	M1
TTP	64	84	2	B	0	M1
TTP	64	144	5	B	0	M1
TTP	64	156	5	E	0	M1
TAP	64	240	7
TAP	64	288	7
TAP	65	0	3
TAP	65	0	4
TAP	65	72	2
TAP	65	72	5
HLD	65	144	1	144
HLD	65	144	6	144
XTP	66	0	3
XTP	66	16	4
XTP	66	32	3
XTP	66	48	4
XTP	66	64	3
XTP	66	80	4
XTP	66	96	3
XTP	66	112	4
XTP	66	128	3
XTP	66	144	4
XTP	66	160	3
XTP	66	176	4
XTP	66	192	2
XTP	66	208	5
XTP	66	224	2
XTP	66	240	5
XTP	66	256	2
XTP	66	272	5
XTP	66	288	2
XTP	66	304	5
XTP	66	320	2
XTP	66	336	5
XTP	66	352	2
XTP	66	368	5
XTP	67	0	3
XTP	67	16	4
XTP	67	32	3
XTP	67	48	4
XTP	67	64	3
XTP	67	80	4
XTP	67	96	3
XTP	67	112	4
XTP	67	128	3
XTP	67	144	4
XTP	67	160	3
XTP	67	176	4
XTP	67	192	2
XTP	67	208	5
XTP	67	224	2
XTP	67	240	5
XTP	67	256	2
XTP	67	272	5
XTP	67	288	2
XTP	67	304	5
XTP	67	320	2
XTP	67	336	5
XTP	67	352	2
XTP	67	368	5
XTP	68	0	3
XTP	68	16	4
XTP	68	32	3
XTP	68	48	4
XTP	68	64	3
XTP	68	80	4
XTP	68	96	3
XTP	68	112	4
XTP	68	128	3
XTP	68	144	4
XTP	68	160	3
XTP	68	176	4
XTP	68	192	3
TAP	68	240	2
TAP	68	240	5
TAP	68	288	2
TAP	68	288	5
TTP	69	0	6	B	0	M1
TTP	69	12	5	B	0	M1
TTP	69	24	5	E	0	M1
TTP	69	72	1	B	0	M1
TTP	69	84	2	B	0	M1
TTP	69	96	3	E	0	M1
TTP	69	144	0	E	0	M1
TTP	69	156	0	C	1	M1
TTP	69	168	4	E	0	M1
TAP	69	240	7
TAP	69	288	7
TAP	69	336	1
TAP	69	360	0
TAP	70	0	1
TAP	70	48	2
TAP	70	72	3
TAP	70	120	3
HLD	70	144	1	96
TAP	70	240	2
TAP	70	288	0
TAP	70	336	6
TAP	70	360	7
TAP	71	0	6
TAP	71	48	5
TAP	71	72	4
STR	71	120	4
SI_	71	120	4	96	72	0
STR	71	144	6
SI_	71	144	6	96	48	2
XTP	72	0	0
XTP	72	0	7
XTP	72	72	1
XTP	72	72	6
XTP	72	144	7
XTP	72	160	6
XTP	72	176	5
XTP	72	192	0
XTP	72	208	1
XTP	72	224	2
XTP	72	240	7
XTP	72	256	6
XTP	72	272	5
XTP	72	288	0
XTP	72	304	1
XTP	72	320	2
XTP	72	336	7
XTP	72	352	6
XTP	72	368	5
XTP	73	0	0
XTP	73	16	1
XTP	73	32	2
XTP	73	48	7
XTP	73	64	6
XTP	73	80	5
XTP	73	96	4
XTP	73	144	1
XTP	73	160	2
XTP	73	176	3
XTP	73	192	6
XTP	73	208	5
XTP	73	224	4
XTP	73	240	1
XTP	73	256	2
XTP	73	272	3
XTP	73	288	6
XTP	73	304	5
XTP	73	320	4
XTP	73	336	1
XTP	73	352	2
XTP	73	368	3
XTP	74	0	6
XTP	74	16	5
XTP	74	32	4
XTP	74	48	1
XTP	74	64	2
XTP	74	80	3
XTP	74	96	4
TAP	74	144	1
TAP	74	144	6
TAP	74	240	0
TAP	74	240	1
TAP	74	288	2
TAP	74	288	7
TAP	74	336	3
TAP	74	336	6
STR	75	0	4
SI_	75	0	4	96	48	0
TAP	75	0	5
XTP	75	96	4
BRK	75	96	7
TAP	75	192	0
TAP	75	192	6
TAP	75	240	5
TAP	75	264	4
TAP	75	312	2
TAP	75	336	3
STR	76	0	1
SI_	76	0	1	96	24	5
TAP	76	0	4
BRK	76	96	1
BRK	76	96	7
TTP	76	108	0	C	1	M1
HLD	76	144	0	96
STR	76	240	1
SV_	76	240	1	96	48	6
TAP	76	288	1
HLD	76	336	5	96
TAP	77	48	0
TAP	77	96	0
TAP	77	144	1
TAP	77	144	6
TAP	77	192	0
TAP	77	192	7
TAP	77	240	5
TAP	77	264	4
TAP	77	312	2
TAP	77	336	3
STR	78	0	1
SI_	78	0	1	96	24	5
TAP	78	0	4
BRK	78	96	1
BRK	78	96	7
TTP	78	108	0	C	1	M1
HLD	78	144	0	96
STR	78	240	1
SUR	78	240	1	96	48	6
TAP	78	288	1
HLD	78	336	5	96
TAP	79	48	0
TAP	79	96	0
TAP	79	144	7
TTP	79	192	0	C	1	M1
TTP	79	192	5	B	0	M1
TTP	79	192	6	B	0	M1
TTP	79	192	6	E	0	M1
TTP	79	264	0	C	1	M1
TTP	79	264	1	B	0	M1
TTP	79	264	2	B	0	M1
TTP	79	264	2	E	0	M1
TTP	79	336	0	C	1	M1
TTP	79	336	3	B	0	M1
TTP	79	336	4	B	0	M1
TTP	79	336	4	E	0	M1
TTP	80	84	0	E	0	M1
TTP	80	96	0	B	0	M1
TTP	80	108	0	C	1	M1
TTP	80	120	4	B	0	M1
TTP	80	132	4	E	0	M1
XHO	80	144	7	96
STR	80	240	2
SCL	80	240	2	96	96	7
STR	80	288	2
SUL	80	288	2	96	48	6
TAP	81	96	7
TAP	81	144	6
STR	81	192	4
SCL	81	192	4	96	96	0
TAP	81	192	5
STR	82	0	3
SCR	82	0	3	96	96	7
STR	82	192	4
SCL	82	192	4	96	96	0
STR	83	0	3
SCR	83	0	3	96	96	7
HLD	83	192	0	192
TAP	84	0	2
TAP	84	48	3
TAP	84	96	1
STR	84	96	3
SCR	84	96	3	96	96	7
STR	84	288	4
SCL	84	288	4	96	96	0
STR	85	96	3
SUR	85	96	3	96	144	4
TAP	86	0	0
TAP	86	48	0
TAP	86	96	7
TAP	86	144	7
STR	86	192	0
SI_	86	192	0	96	48	4
STR	86	288	6
SI_	86	288	6	96	48	2
BRK	87	0	0
BRK	87	48	0
TAP	87	96	1
TAP	87	96	5
TAP	87	144	2
TAP	87	168	4
STR	87	192	3
SF_	87	192	3	96	24	7
XTP	87	288	3
TTP	87	300	0	C	1	M1

T_REC_TAP	242
T_REC_BRK	42
T_REC_XTP	118
T_REC_HLD	62
T_REC_XHO	2
T_REC_STR	66
T_REC_BST	2
T_REC_XST	2
T_REC_TTP	106
T_REC_THO	0
T_REC_SLD	70
T_REC_ALL	712
T_NUM_TAP	534
T_NUM_BRK	44
T_NUM_HLD	64
T_NUM_SLD	70
T_NUM_ALL	712
T_JUDGE_TAP	578
T_JUDGE_HLD	158
T_JUDGE_SLD	70
T_JUDGE_ALL	806
TTM_EACHPAIRS	82
TTM_SCR_TAP	267000
TTM_SCR_BRK	114400
TTM_SCR_HLD	64000
TTM_SCR_SLD	105000
TTM_SCR_ALL	550400
TTM_SCR_S	529650
TTM_SCR_SS	546000
TTM_RAT_ACV	10080

