VERSION	0.00.00	1.03.00
FES_MODE	0
BPM_DEF	140.000	140.000	140.000	140.000
MET_DEF	4	4
RESOLUTION	384
CLK_DEF	384
COMPATIBLE_CODE	MA2

BPM	0	0	140.000
MET	0	0	4	4

HLD	2	0	5	192
TAP	2	144	4
TAP	2	192	4
HLD	3	0	2	192
TAP	3	144	3
BRK	3	192	3
HLD	4	0	5	192
TAP	4	144	4
TAP	4	192	4
HLD	5	0	3	192
TAP	5	144	4
TAP	5	192	4
TAP	5	288	3
STR	5	288	4
SXL	5	288	4	96	384	7
HLD	6	0	2	384
BRK	7	96	2
BRK	7	144	2
XTP	7	240	2
XTP	7	240	3
XTP	7	288	2
XST	7	288	3
SXL	7	288	3	96	384	6
HLD	8	0	1	384
BRK	9	96	1
BRK	9	144	1
XTP	9	240	3
XTP	9	240	5
XST	9	288	3
SXR	9	288	3	96	384	0
XTP	9	288	5
HLD	10	0	6	384
BRK	11	96	6
BRK	11	144	6
TAP	11	240	7
STR	11	288	7
SCL	11	288	7	96	96	4
STR	12	96	0
SCR	12	96	0	96	96	3
STR	12	288	7
SXR	12	288	7	96	192	2
XTP	13	192	0
XTP	13	288	0
XHO	14	0	2	360
BRK	14	0	7
THO	14	192	0	168	C	1	M1
XTP	15	288	1
XTP	15	288	6
HLD	16	0	2	96
TAP	16	96	3
HLD	16	192	5	96
TAP	16	288	4
HLD	17	0	1	96
TAP	17	96	3
TAP	17	192	0
TAP	17	192	1
XTP	17	288	7
XTP	17	336	7
TAP	18	48	0
TAP	18	48	6
TAP	18	96	0
TAP	18	96	6
XTP	18	192	1
XTP	18	192	3
XTP	18	264	3
XTP	18	264	4
XTP	18	336	4
XTP	18	336	6
XTP	19	0	4
XTP	19	0	6
TAP	19	192	3
TAP	19	192	4
TAP	19	288	5
TAP	19	336	5
TAP	20	0	4
TAP	20	96	4
TAP	20	96	5
TAP	20	192	6
TAP	20	288	4
STR	20	288	5
SCL	20	288	5	96	96	2
XTP	21	96	1
TAP	21	192	1
TAP	21	192	3
TAP	21	288	2
TAP	21	336	2
TAP	22	0	3
TAP	22	96	2
TAP	22	96	4
TAP	22	192	5
TAP	22	288	4
STR	22	288	5
SCL	22	288	5	96	96	2
XTP	23	96	1
TAP	23	192	1
TAP	23	192	3
TAP	23	288	2
TAP	23	336	2
TAP	24	0	3
TAP	24	96	2
TAP	24	96	4
TAP	24	192	3
TAP	24	192	5
TAP	24	288	4
STR	24	288	6
SUL	24	288	6	96	96	2
XTP	25	96	1
TTP	25	192	1	E	0	M1
TTP	25	288	7	E	0	M1
TTP	26	0	5	E	0	M1
TTP	26	96	3	E	0	M1
TTP	26	192	0	C	1	M1
XTP	27	48	0
XTP	27	48	7
XTP	27	96	0
XTP	27	96	7
XTP	27	144	0
XTP	27	144	7
HLD	27	288	2	576
TAP	27	288	5
TAP	28	48	3
TAP	28	96	3
TAP	28	288	1
TAP	29	48	3
TAP	29	96	3
TAP	29	192	3
TAP	29	192	4
HLD	29	288	5	576
TAP	30	48	4
TAP	30	96	4
TAP	30	288	6
TAP	31	48	4
TAP	31	96	4
TAP	31	192	3
TAP	31	192	4
HLD	31	288	1	576
TAP	31	288	3
TAP	32	48	2
TAP	32	96	2
TAP	32	288	0
TAP	33	48	2
TAP	33	96	2
TAP	33	192	2
TAP	33	192	3
TAP	33	288	4
XTP	34	0	3
XTP	34	0	5
XTP	34	72	2
XTP	34	72	4
XTP	34	144	1
XTP	34	144	5
TAP	34	240	3
TAP	34	240	4
TAP	34	288	3
TAP	34	288	4
HLD	35	0	2	72
HLD	35	72	3	72
TAP	35	144	1
TAP	35	240	0
TAP	35	288	0
HLD	36	0	1	72
HLD	36	72	3	72
TAP	36	144	2
TAP	36	240	4
TAP	36	288	4
TAP	37	0	5
TAP	37	48	5
TAP	37	144	4
TAP	37	144	6
TAP	37	240	7
TAP	37	288	7
HLD	38	0	6	72
HLD	38	72	4	72
TAP	38	144	5
TAP	38	240	2
TAP	38	240	4
TAP	38	288	2
TAP	38	288	4
XTP	39	0	0
XTP	39	72	1
XTP	39	72	7
XTP	39	144	2
XTP	39	144	6
HLD	39	240	2	72
HLD	39	312	4	72
HLD	40	0	3	72
TAP	40	72	5
TAP	40	144	4
TAP	40	144	6
HLD	40	240	5	72
HLD	40	312	3	72
HLD	41	0	4	72
STR	41	72	2
SCL	41	72	2	96	216	5
XTP	42	144	2
XTP	42	144	5
TAP	42	240	0
TAP	42	288	0
TAP	42	336	7
TAP	43	48	1
TAP	43	48	6
TAP	43	96	1
TAP	43	96	6
XTP	43	192	2
XTP	43	192	4
XTP	43	264	3
XTP	43	264	6
XTP	43	336	1
XST	43	336	4
SI_	43	336	4	96	48	7
BRK	44	96	0
TAP	44	192	2
TAP	44	240	2
TAP	44	288	1
TAP	44	288	3
TAP	45	0	5
TAP	45	48	5
TAP	45	96	4
TAP	45	96	6
XTP	45	192	1
XTP	45	192	4
XTP	45	264	3
XTP	45	264	5
XST	45	336	2
SI_	45	336	2	96	48	7
XTP	45	336	4
BRK	46	96	6
TAP	46	192	4
TAP	46	192	5
TAP	46	288	2
TAP	46	288	3
TAP	47	0	1
TAP	47	48	1
TAP	47	96	0
XTP	47	192	3
XTP	47	192	6
XTP	47	264	2
XTP	47	264	4
XTP	47	336	3
XST	47	336	5
SI_	47	336	5	96	48	0
BRK	48	96	1
TAP	48	192	2
TAP	48	240	2
TAP	48	288	1
TAP	48	288	3
TAP	49	0	5
TAP	49	48	5
TAP	49	96	4
TAP	49	96	6
TAP	49	192	3
HLD	49	192	5	96
TAP	49	288	0
HLD	50	0	2	96
TAP	50	0	4
TAP	50	96	7
TAP	50	192	4
TAP	50	192	6
TAP	50	288	5
TAP	51	0	1
TAP	51	0	3
TAP	51	96	2
TAP	51	192	4
TAP	51	240	4
TAP	51	288	3
TAP	51	336	3
TAP	52	0	4
BRK	52	96	2
BRK	52	96	5
BRK	52	144	1
BRK	52	144	6
BST	52	192	0
SUL	52	192	0	96	528	7
BST	52	192	7
SCL	52	192	7	96	528	0
TAP	54	192	0
HLD	54	192	1	96
TAP	54	288	3
HLD	55	0	6	96
TAP	55	0	7
TAP	55	96	4
XHO	55	192	3	96
XHO	55	192	5	96
XHO	55	336	2	96
XHO	55	336	4	96
XHO	56	96	3	96
XHO	56	96	6	96
XTP	56	240	1
XTP	56	240	4
TAP	56	336	0
TAP	57	0	0
TAP	57	48	7
TAP	57	96	7
XTP	57	144	1
HLD	57	288	2	576
TAP	58	48	3
TAP	58	96	3
TAP	58	288	4
TAP	59	48	3
TAP	59	96	3
TAP	59	192	3
TAP	59	192	4
HLD	59	288	5	576
TAP	60	48	4
TAP	60	96	4
TAP	60	288	3
TAP	61	48	4
TAP	61	96	4
TAP	61	192	2
TAP	61	192	4
HLD	61	288	1	576
TAP	62	48	3
TAP	62	96	3
TAP	62	288	2
TAP	63	48	3
TAP	63	96	3
TAP	63	192	4
TAP	63	288	5
TAP	64	0	4
STR	64	0	5
SV_	64	0	5	96	144	2
HLD	65	0	2	72
HLD	65	72	3	72
XTP	65	144	1
TAP	65	240	0
TAP	65	288	0
HLD	66	0	1	72
HLD	66	72	3	72
TAP	66	144	2
TAP	66	240	4
TAP	66	288	4
TAP	67	0	5
TAP	67	48	5
TAP	67	96	4
TAP	67	144	6
TAP	67	240	7
TAP	67	288	7
XTP	68	0	0
XTP	68	72	1
XTP	68	72	7
XTP	68	144	2
XTP	68	144	6
TAP	68	240	3
TAP	68	240	4
TAP	68	288	3
TAP	68	288	4
XTP	69	0	2
XTP	69	0	3
XTP	69	72	4
XTP	69	72	5
XTP	69	144	3
XTP	69	144	6
HLD	69	240	5	72
HLD	69	312	4	72
HLD	70	0	3	72
TAP	70	72	2
TAP	70	144	2
TAP	70	144	3
HLD	70	240	2	72
HLD	70	312	3	72
HLD	71	0	4	72
STR	71	72	5
SCR	71	72	5	96	264	3
XTP	72	144	2
XTP	72	144	5
TAP	72	240	3
HLD	72	240	6	72
HLD	72	312	5	72
HLD	73	0	4	72
TAP	73	72	3
XTP	73	144	2
XTP	73	144	3
HLD	73	240	1	72
TAP	73	240	4
HLD	73	312	2	72
HLD	74	0	3	72
TAP	74	72	4
XTP	74	144	4
XTP	74	144	5
TAP	74	240	3
TAP	74	288	3
TAP	74	336	4
TAP	75	48	0
TAP	75	48	7
BRK	75	96	1
BRK	75	96	6
XHO	75	192	4	48
XHO	75	192	5	48
XHO	75	264	2	48
XHO	75	264	3	48
BST	75	336	1
SI_	75	336	1	96	48	5
BRK	75	336	4
BRK	76	96	7
TAP	76	192	6
TAP	76	240	7
TAP	76	288	0
TAP	76	288	5
TAP	77	0	1
TAP	77	0	6
TAP	77	96	3
TAP	77	96	4
XHO	77	192	4	48
XHO	77	192	6	48
XHO	77	264	2	48
XHO	77	264	3	48
BST	77	336	1
SI_	77	336	1	96	48	5
BRK	77	336	4
BRK	78	96	7
TAP	78	192	0
TAP	78	192	1
TAP	78	288	2
TAP	78	288	3
TAP	79	0	5
TAP	79	48	4
TAP	79	96	3
TAP	79	96	6
XHO	79	192	2	48
XHO	79	192	4	48
XHO	79	264	3	48
XHO	79	264	5	48
BRK	79	336	0
BST	79	336	7
SF_	79	336	7	96	48	3
XTP	80	192	1
XTP	80	192	5
XTP	80	288	1
XTP	80	288	5
TAP	81	0	3
TAP	81	48	4
TAP	81	96	3
TAP	81	192	4
HLD	81	192	6	96
TAP	81	288	7
TAP	82	0	0
HLD	82	0	1	96
TAP	82	96	3
STR	82	192	4
SCR	82	192	4	96	96	7
STR	83	0	0
SCR	83	0	0	96	96	3
TAP	83	192	5
TAP	83	288	4
TAP	83	288	6
TAP	84	0	0
TAP	84	96	1
TAP	84	96	7
STR	84	192	2
SCL	84	192	2	96	96	7
STR	85	0	6
SCL	85	0	6	96	96	3
TAP	85	192	1
TAP	85	288	1
TAP	85	288	3
TAP	86	0	5
TAP	86	48	4
TAP	86	48	5
TAP	86	144	3
TAP	86	144	6
TAP	86	240	1
TAP	86	240	5
TAP	86	288	1
TAP	86	288	5
BRK	87	0	0
BRK	87	0	7
BRK	87	48	0
BRK	87	48	7
BRK	87	96	1
BRK	87	96	6
BRK	87	144	2
BRK	87	144	5
BRK	87	192	3
BRK	87	192	4
TTP	87	288	0	C	1	M1
TTP	87	288	1	B	0	M1
TTP	87	288	2	B	0	M1
TTP	87	288	2	E	0	M1
TTP	87	288	5	B	0	M1
TTP	87	288	6	B	0	M1
TTP	87	288	6	E	0	M1

T_REC_TAP	237
T_REC_BRK	32
T_REC_XTP	82
T_REC_HLD	50
T_REC_XHO	19
T_REC_STR	14
T_REC_BST	5
T_REC_XST	5
T_REC_TTP	12
T_REC_THO	1
T_REC_SLD	24
T_REC_ALL	481
T_NUM_TAP	350
T_NUM_BRK	37
T_NUM_HLD	70
T_NUM_SLD	24
T_NUM_ALL	481
T_JUDGE_TAP	387
T_JUDGE_HLD	222
T_JUDGE_SLD	24
T_JUDGE_ALL	633
TTM_EACHPAIRS	123
TTM_SCR_TAP	175000
TTM_SCR_BRK	96200
TTM_SCR_HLD	70000
TTM_SCR_SLD	36000
TTM_SCR_ALL	377200
TTM_SCR_S	362300
TTM_SCR_SS	373500
TTM_RAT_ACV	10099

