VERSION	0.00.00	1.03.00
FES_MODE	0
BPM_DEF	140.000	140.000	140.000	140.000
MET_DEF	4	4
RESOLUTION	384
CLK_DEF	384
COMPATIBLE_CODE	MA2

BPM	0	0	140.000
MET	0	0	4	4

STR	6	0	6
SXL	6	0	6	96	384	2
STR	8	0	1
SXR	8	0	1	96	384	5
STR	10	0	6
SXR	10	0	6	96	384	2
STR	12	0	1
SCR	12	0	1	96	144	4
STR	13	0	5
SCR	13	0	5	96	144	0
XTP	14	0	0
XTP	14	0	1
XTP	15	0	1
TAP	15	96	1
TAP	15	192	0
TAP	15	192	1
TAP	16	0	6
TAP	16	96	6
TAP	16	192	6
TAP	16	192	7
TAP	17	0	1
TAP	17	96	1
TAP	17	192	0
TAP	17	192	1
TAP	18	0	7
TAP	18	96	0
STR	18	192	1
SI_	18	192	1	96	144	4
STR	18	192	6
SI_	18	192	6	96	144	3
XHO	19	192	2	192
TAP	20	0	3
HLD	20	192	5	192
TAP	21	0	4
HLD	21	192	2	192
TAP	22	0	3
TAP	22	192	4
TAP	22	288	4
TAP	23	0	3
TAP	23	0	5
XHO	23	192	6	192
TAP	24	0	7
HLD	24	192	1	192
TAP	25	0	0
HLD	25	192	6	192
TAP	26	0	7
TAP	26	192	0
TAP	26	288	7
TAP	27	0	1
TAP	27	0	6
XST	27	192	2
SCR	27	192	2	96	144	5
STR	28	192	6
SCL	28	192	6	96	144	3
STR	29	192	2
SCL	29	192	2	96	144	7
STR	30	192	6
SCR	30	192	6	96	144	1
STR	31	192	2
SI_	31	192	2	96	144	7
STR	32	192	6
SI_	32	192	6	96	144	2
STR	33	192	1
SI_	33	192	1	96	144	5
STR	34	192	7
SI_	34	192	7	96	144	4
TAP	35	192	2
TAP	35	288	2
TAP	36	0	3
TAP	36	192	5
TAP	36	288	5
TAP	37	0	4
TAP	37	192	2
TAP	37	288	2
TAP	38	0	3
TAP	38	192	4
TAP	38	288	4
TAP	39	0	3
TAP	39	0	5
TAP	39	192	6
TAP	39	288	6
TAP	40	0	7
TAP	40	192	1
TAP	40	288	1
STR	41	0	0
SCR	41	0	0	96	384	5
TAP	43	192	6
TAP	43	288	6
TAP	44	0	6
TAP	44	0	7
BRK	44	96	6
BRK	44	96	7
TAP	44	192	5
TAP	44	288	4
TAP	45	0	2
TAP	45	0	3
TAP	45	192	1
TAP	45	288	1
TAP	46	0	0
TAP	46	0	1
BRK	46	96	0
BRK	46	96	1
TAP	46	192	2
TAP	46	288	3
TAP	47	0	4
TAP	47	0	5
TAP	47	192	5
TAP	47	288	5
TAP	48	0	4
TAP	48	0	5
BRK	48	96	4
BRK	48	96	5
TAP	48	192	6
TAP	48	288	7
TAP	49	0	0
TAP	49	96	1
TAP	49	192	0
TAP	49	192	7
TAP	50	0	1
TAP	50	0	6
XTP	50	192	2
XTP	50	192	5
XTP	50	288	2
XTP	50	288	5
XST	51	0	4
SCR	51	0	4	96	336	0
TAP	52	192	1
TAP	52	288	1
TAP	53	0	0
TAP	53	0	1
TAP	53	192	6
TAP	53	288	6
TAP	54	0	6
TAP	54	0	7
TAP	54	192	1
TAP	54	288	1
TAP	55	0	0
TAP	55	0	1
TAP	55	192	7
TAP	55	288	7
TAP	56	0	0
TAP	56	96	0
TAP	56	192	0
TAP	56	192	7
XTP	56	288	1
XTP	56	288	6
TTP	57	192	2	B	0	L1
TTP	58	192	3	B	0	L1
TTP	59	192	4	B	0	L1
TTP	60	192	5	B	0	L1
TTP	61	192	6	B	0	L1
TTP	62	192	7	B	0	L1
TTP	63	192	0	B	0	L1
TTP	64	192	0	C	0	L1
XST	65	192	5
SCL	65	192	5	96	144	2
STR	66	192	1
SCR	66	192	1	96	144	4
STR	67	192	5
SCR	67	192	5	96	144	0
STR	68	192	1
SCL	68	192	1	96	144	6
TAP	69	192	5
TAP	69	288	5
TAP	70	0	4
TAP	70	192	3
TAP	70	192	4
TAP	70	288	3
TAP	70	288	4
XHO	71	0	2	384
XHO	71	0	5	384
TTP	72	144	3	B	0	L1
TTP	72	144	4	B	0	L1
TTP	73	144	2	B	0	L1
TTP	73	144	5	B	0	L1
THO	74	144	0	192	C	0	L1
TAP	75	192	0
TAP	75	288	0
TAP	75	288	1
TAP	76	0	6
BRK	76	96	6
BRK	76	96	7
TAP	76	192	5
TAP	76	288	5
TAP	77	0	4
TAP	77	0	6
TAP	77	192	6
TAP	77	288	6
TAP	77	288	7
TAP	78	0	1
BRK	78	96	0
BRK	78	96	1
TAP	78	192	2
TAP	78	288	2
TAP	79	0	1
TAP	79	0	3
TAP	79	192	2
TAP	79	288	2
TAP	79	288	3
TAP	80	0	5
BRK	80	96	4
BRK	80	96	5
TAP	80	192	6
TAP	80	288	7
TAP	81	0	0
TAP	81	96	1
STR	81	192	0
SI_	81	192	0	96	144	4
STR	81	192	7
SI_	81	192	7	96	144	3
TAP	82	192	2
TAP	82	192	5
TAP	83	0	1
TAP	83	0	6
STR	83	192	0
SI_	83	192	0	96	144	3
STR	83	192	7
SI_	83	192	7	96	144	4
TAP	84	192	2
TAP	84	192	5
TAP	85	0	1
TAP	85	0	6
STR	85	192	0
SCR	85	192	0	96	144	3
STR	85	192	7
SCL	85	192	7	96	144	4
XTP	86	192	2
XTP	86	192	5
XTP	87	0	1
XTP	87	0	6
STR	87	192	0
SXL	87	192	0	96	384	3
STR	87	192	7
SXR	87	192	7	96	384	4

T_REC_TAP	130
T_REC_BRK	12
T_REC_XTP	13
T_REC_HLD	4
T_REC_XHO	4
T_REC_STR	26
T_REC_BST	0
T_REC_XST	3
T_REC_TTP	12
T_REC_THO	1
T_REC_SLD	29
T_REC_ALL	234
T_NUM_TAP	184
T_NUM_BRK	12
T_NUM_HLD	9
T_NUM_SLD	29
T_NUM_ALL	234
T_JUDGE_TAP	196
T_JUDGE_HLD	44
T_JUDGE_SLD	29
T_JUDGE_ALL	269
TTM_EACHPAIRS	46
TTM_SCR_TAP	92000
TTM_SCR_BRK	31200
TTM_SCR_HLD	9000
TTM_SCR_SLD	43500
TTM_SCR_ALL	175700
TTM_SCR_S	169300
TTM_SCR_SS	174500
TTM_RAT_ACV	10068

