VERSION	0.00.00	1.03.00
FES_MODE	0
BPM_DEF	140.000	140.000	140.000	140.000
MET_DEF	4	4
RESOLUTION	384
CLK_DEF	384
COMPATIBLE_CODE	MA2

BPM	0	0	140.000
MET	0	0	4	4
MET	19	0	4	2
MET	19	192	4	4

STR	6	0	7
SI_	6	0	7	96	288	4
STR	8	0	0
SI_	8	0	0	96	288	3
STR	10	0	7
SI_	10	0	7	96	288	4
XTP	12	0	0
STR	13	0	0
SI_	13	0	0	96	288	3
TAP	15	0	4
TAP	15	192	4
TAP	16	0	4
TAP	17	0	3
TAP	17	192	3
HLD	18	0	3	384
HLD	18	0	4	384
TAP	19	192	2
TAP	20	0	2
XTP	20	192	2
TAP	21	192	1
TAP	22	0	1
XTP	22	192	1
TAP	23	192	0
TAP	24	0	0
XTP	24	192	0
TAP	25	192	7
TAP	26	0	7
XTP	26	192	0
XTP	26	192	7
TTP	27	192	1	B	0	L1
TTP	28	192	2	B	0	L1
TTP	29	192	3	B	0	L1
TTP	30	192	4	B	0	L1
TTP	31	192	5	B	0	L1
TTP	32	192	6	B	0	L1
HLD	33	192	0	384
HLD	33	192	7	384
TTP	35	192	6	B	0	L1
TTP	35	192	7	B	0	L1
TTP	36	192	4	B	0	L1
TTP	36	192	5	B	0	L1
TTP	37	192	2	B	0	L1
TTP	37	192	3	B	0	L1
TTP	38	192	0	B	0	L1
TTP	38	192	1	B	0	L1
THO	39	192	0	720	C	1	L1
HLD	43	192	0	192
TAP	44	192	1
TAP	44	288	1
TAP	45	0	1
HLD	45	192	2	192
TAP	46	192	3
TAP	46	288	3
TAP	47	0	3
TAP	47	0	4
HLD	47	192	4	192
TAP	48	192	5
TAP	48	288	5
TAP	49	0	5
TAP	49	192	6
TAP	50	0	6
TAP	50	192	7
TAP	51	0	7
HLD	51	192	0	192
HLD	51	192	7	192
STR	52	192	7
SI_	52	192	7	96	288	4
STR	54	192	0
SI_	54	192	0	96	288	3
TAP	57	192	7
TAP	58	0	7
TAP	58	192	6
TAP	59	0	6
TAP	59	192	5
TAP	60	0	5
TAP	60	192	4
TAP	61	0	4
TAP	61	192	3
TAP	62	0	3
TAP	62	192	2
TAP	63	0	2
TAP	63	192	1
TAP	64	0	1
XTP	64	192	0
XTP	64	192	7
TAP	65	192	0
TAP	66	0	0
TAP	66	192	1
TAP	67	0	1
TAP	67	192	2
TAP	68	0	2
HLD	68	192	3	192
HLD	68	192	4	192
TTP	69	192	3	B	0	L1
TTP	69	192	4	B	0	L1
TTP	70	192	2	B	0	L1
TTP	70	192	5	B	0	L1
TTP	71	192	1	B	0	L1
TTP	71	192	6	B	0	L1
THO	72	192	0	720	C	1	L1
BRK	75	192	7
TAP	75	288	7
TAP	76	0	7
TAP	76	192	6
TAP	76	288	6
XTP	77	0	6
XTP	77	0	7
BRK	77	192	5
TAP	77	288	5
TAP	78	0	5
TAP	78	192	4
TAP	78	288	3
XTP	79	0	4
BRK	79	192	3
TAP	79	288	3
TAP	80	0	3
TAP	80	192	2
TAP	80	288	2
XTP	81	0	2
XTP	81	0	3
STR	81	192	1
SI_	81	192	1	96	288	5
STR	83	192	6
SI_	83	192	6	96	288	2
TTP	85	192	3	B	0	L1
TTP	85	192	4	B	0	L1
TTP	86	192	2	B	0	L1
TTP	86	192	5	B	0	L1
TTP	87	192	0	C	1	L1

T_REC_TAP	59
T_REC_BRK	3
T_REC_XTP	13
T_REC_HLD	11
T_REC_XHO	0
T_REC_STR	8
T_REC_BST	0
T_REC_XST	0
T_REC_TTP	25
T_REC_THO	2
T_REC_SLD	8
T_REC_ALL	129
T_NUM_TAP	105
T_NUM_BRK	3
T_NUM_HLD	13
T_NUM_SLD	8
T_NUM_ALL	129
T_JUDGE_TAP	108
T_JUDGE_HLD	90
T_JUDGE_SLD	8
T_JUDGE_ALL	206
TTM_EACHPAIRS	9
TTM_SCR_TAP	52500
TTM_SCR_BRK	7800
TTM_SCR_HLD	13000
TTM_SCR_SLD	12000
TTM_SCR_ALL	85300
TTM_SCR_S	82450
TTM_SCR_SS	85000
TTM_RAT_ACV	10035

