VERSION	0.00.00	1.03.00
FES_MODE	0
BPM_DEF	154.000	154.000	154.000	154.000
MET_DEF	4	4
RESOLUTION	384
CLK_DEF	384
COMPATIBLE_CODE	MA2

BPM	0	0	154.000
MET	0	0	4	4

BST	2	0	0
SI_	2	0	0	96	144	4
HLD	2	0	1	720
HLD	3	0	5	336
HLD	4	0	0	96
HLD	4	0	6	96
TAP	4	192	1
TAP	4	192	7
TAP	4	288	0
TAP	4	288	6
TAP	4	336	0
HLD	4	336	6	96
HLD	5	48	2	48
HLD	5	96	4	48
HLD	5	144	0	48
TAP	5	192	7
TAP	5	240	7
TTP	5	288	0	C	1	M1
TTP	6	0	3	B	0	M1
TTP	6	0	3	E	0	M1
XTP	6	0	7
XTP	6	96	0
TTP	6	96	5	B	0	M1
TTP	6	96	5	E	0	M1
TTP	6	192	3	B	0	M1
TTP	6	192	3	E	0	M1
XTP	6	192	7
XTP	6	288	0
TTP	6	288	5	B	0	M1
TTP	6	288	5	E	0	M1
TTP	7	0	3	B	0	M1
TTP	7	0	3	E	0	M1
XTP	7	0	7
XTP	7	96	0
TTP	7	96	5	B	0	M1
TTP	7	96	5	E	0	M1
TTP	7	192	3	B	0	M1
TTP	7	192	3	E	0	M1
XTP	7	192	7
XTP	7	288	0
TTP	7	288	5	B	0	M1
TTP	7	288	5	E	0	M1
TTP	8	0	2	B	0	M1
TTP	8	0	3	B	0	M1
TTP	8	0	3	E	0	M1
XTP	8	0	7
XTP	8	96	0
TTP	8	96	4	B	0	M1
TTP	8	96	5	B	0	M1
TTP	8	96	5	E	0	M1
TTP	8	192	2	B	0	M1
TTP	8	192	3	B	0	M1
TTP	8	192	3	E	0	M1
XTP	8	192	7
XTP	8	288	0
TTP	8	288	4	B	0	M1
TTP	8	288	5	B	0	M1
TTP	8	288	5	E	0	M1
TTP	9	0	2	B	0	M1
TTP	9	0	3	B	0	M1
TTP	9	0	3	E	0	M1
XTP	9	0	7
XTP	9	96	0
TTP	9	96	4	B	0	M1
TTP	9	96	5	B	0	M1
TTP	9	96	5	E	0	M1
TTP	9	192	2	B	0	M1
TTP	9	192	3	E	0	M1
XTP	9	192	7
XTP	9	288	4
XTP	9	312	3
XTP	9	336	4
TAP	10	0	0
TAP	10	0	5
TAP	10	48	1
TAP	10	96	2
TAP	10	96	7
TAP	10	144	6
HLD	10	192	0	48
HLD	10	192	5	48
HLD	10	288	2	48
HLD	10	288	7	48
TAP	11	0	0
TAP	11	0	5
TAP	11	48	1
TAP	11	96	2
TAP	11	96	7
TAP	11	144	6
HLD	11	192	0	48
HLD	11	192	5	48
HLD	11	288	2	48
HLD	11	288	7	48
TAP	12	0	0
TAP	12	0	5
TAP	12	48	1
TAP	12	96	2
TAP	12	96	7
TAP	12	144	6
HLD	12	192	0	48
HLD	12	192	5	48
HLD	12	288	2	48
HLD	12	288	7	48
TAP	13	0	0
TAP	13	0	5
TAP	13	48	1
TAP	13	48	6
BRK	13	96	1
BRK	13	96	6
TAP	13	192	3
HLD	13	192	4	72
TAP	13	264	3
TAP	13	288	4
TAP	13	336	2
HLD	14	0	2	72
TAP	14	72	3
TAP	14	96	1
TAP	14	144	1
HLD	14	192	5	72
TAP	14	264	4
TAP	14	288	6
TAP	14	336	6
HLD	15	0	2	72
TAP	15	72	3
TAP	15	96	1
TAP	15	144	0
TAP	15	192	7
TAP	15	240	6
TAP	15	288	1
TAP	15	288	5
TAP	16	0	0
TAP	16	48	1
HLD	16	96	2	72
TAP	16	168	3
TAP	16	192	2
TAP	16	240	4
TAP	16	288	5
TAP	16	336	6
TAP	17	0	7
TAP	17	48	0
TAP	17	96	1
TAP	17	144	2
TAP	17	192	3
TAP	17	240	4
TAP	17	288	5
TAP	17	336	5
TAP	17	360	4
HLD	18	0	6	96
TAP	18	96	0
HLD	18	144	0	192
TAP	18	240	2
TAP	18	288	3
TAP	18	336	4
HLD	19	0	1	96
TAP	19	96	7
HLD	19	144	7	192
TAP	19	240	5
TAP	19	288	4
TAP	19	336	3
STR	20	0	6
SCR	20	0	6	96	96	1
STR	20	96	1
SCR	20	96	1	96	96	4
TAP	20	192	4
TAP	20	288	0
BRK	21	0	1
BRK	21	0	6
BRK	21	48	1
BRK	21	48	6
BRK	21	96	1
BRK	21	96	6
HLD	21	192	3	72
TAP	21	192	4
TAP	21	264	4
TAP	21	288	3
TAP	21	336	5
HLD	22	0	5	72
TAP	22	72	4
TAP	22	96	6
TAP	22	144	6
HLD	22	192	2	72
TAP	22	264	3
TAP	22	288	1
TAP	22	336	1
HLD	23	0	5	72
TAP	23	72	4
TAP	23	96	6
TAP	23	144	7
TAP	23	192	0
TAP	23	240	1
TAP	23	288	2
TAP	23	288	6
TAP	24	0	7
TAP	24	48	6
HLD	24	96	5	72
TAP	24	168	4
TAP	24	192	5
TAP	24	240	3
TAP	24	288	2
TAP	24	336	1
TAP	25	0	0
TAP	25	48	7
TAP	25	96	6
TAP	25	144	5
TAP	25	192	4
TAP	25	240	3
TAP	25	288	2
TAP	25	336	2
TAP	25	360	3
HLD	26	0	1	96
TAP	26	96	7
HLD	26	144	7	192
TAP	26	240	5
TAP	26	288	4
TAP	26	336	3
HLD	27	0	6	96
TAP	27	96	0
HLD	27	144	0	192
TAP	27	240	3
TAP	27	288	4
TAP	27	336	5
XST	28	0	6
SI_	28	0	6	96	48	3
XST	28	0	7
SI_	28	0	7	96	48	2
XTP	28	192	1
XTP	28	192	4
XTP	28	264	0
XTP	28	264	5
XHO	28	336	6	144
XHO	28	336	7	144
XTP	29	192	3
XTP	29	192	4
XTP	29	288	2
XTP	29	288	5
XTP	30	0	0
XTP	30	0	1
XTP	30	96	0
XTP	30	96	1
XTP	30	192	0
XTP	30	192	1
XTP	30	264	0
XTP	30	264	1
XTP	30	336	0
XTP	30	336	1
XTP	31	48	0
XTP	31	48	1
XTP	31	96	0
XTP	31	96	1
XTP	31	144	0
XTP	31	144	1
BRK	31	192	0
BRK	31	192	1
BRK	31	288	2
BRK	31	288	5
STR	32	0	7
SI_	32	0	7	96	48	4
TAP	32	48	7
STR	32	96	1
SI_	32	96	1	96	48	5
TAP	32	144	1
STR	32	192	0
SCL	32	192	0	96	96	4
TAP	32	264	4
HLD	32	336	2	96
STR	33	48	3
SI_	33	48	3	96	48	6
TAP	33	96	3
STR	33	144	0
SI_	33	144	0	96	48	4
TAP	33	192	0
STR	33	264	7
SCL	33	264	7	96	96	2
TTP	33	336	0	C	1	M1
XST	34	96	0
SI_	34	96	0	96	48	4
STR	34	192	5
SI_	34	192	5	96	48	1
STR	34	288	2
SCR	34	288	2	96	168	0
HLD	34	336	2	192
TAP	35	240	4
TAP	35	288	3
TAP	35	336	2
HLD	36	0	1	192
TAP	36	48	3
TAP	36	96	4
TAP	36	144	5
HLD	36	192	6	192
TAP	36	240	4
TAP	36	288	3
TAP	36	336	2
HLD	37	0	1	192
TAP	37	48	3
TAP	37	96	4
TAP	37	144	5
TAP	37	192	6
BRK	37	336	2
BRK	37	336	6
BRK	38	0	1
BRK	38	0	5
BRK	38	96	2
BRK	38	96	6
BRK	38	144	1
BRK	38	144	5
TAP	38	240	2
TAP	38	240	6
TAP	38	336	1
TAP	38	336	6
TAP	39	0	1
TAP	39	0	6
TAP	39	48	2
TAP	39	72	3
TAP	39	96	1
TAP	39	144	5
TAP	39	168	4
TAP	39	192	6
TAP	39	240	0
TAP	39	240	7
BRK	39	288	1
BRK	39	288	6
STR	40	0	3
SI_	40	0	3	96	48	0
TAP	40	48	3
STR	40	96	6
SI_	40	96	6	96	48	2
TAP	40	144	6
STR	40	192	7
SCR	40	192	7	96	96	3
TAP	40	264	3
HLD	40	336	5	96
STR	41	48	4
SI_	41	48	4	96	48	1
TAP	41	96	4
STR	41	144	7
SI_	41	144	7	96	48	3
TAP	41	192	7
STR	41	264	0
SCR	41	264	0	96	96	5
TTP	41	336	0	C	1	M1
XST	42	96	7
SI_	42	96	7	96	48	3
STR	42	192	2
SI_	42	192	2	96	48	6
STR	42	288	5
SCL	42	288	5	96	168	7
HLD	42	336	5	192
TAP	43	240	3
TAP	43	288	4
TAP	43	336	5
HLD	44	0	6	192
TAP	44	48	4
TAP	44	96	3
TAP	44	144	2
HLD	44	192	1	192
TAP	44	240	3
TAP	44	288	4
TAP	44	336	5
HLD	45	0	6	192
TAP	45	48	3
TAP	45	96	2
TAP	45	144	1
TAP	45	192	0
TAP	45	240	0
TAP	45	288	1
TAP	45	288	5
STR	45	336	1
SCR	45	336	1	96	48	4
TAP	45	336	5
STR	46	96	6
SUL	46	96	6	96	48	2
STR	46	192	0
SSL	46	192	0	96	96	4
TAP	46	288	6
XHO	46	336	6	96
XHO	47	48	4	48
XHO	47	96	2	48
XHO	47	144	0	48
XHO	47	192	6	48
XHO	47	240	2	48
BRK	47	288	7
XHO	48	0	2	96
XHO	48	0	7	96
XTP	48	108	1
XTP	48	108	6
XHO	48	120	0	72
XHO	48	120	5	72
XTP	48	204	1
XTP	48	204	6
XHO	48	216	2	72
XHO	48	216	7	72
XTP	48	300	1
XTP	48	300	6
XHO	48	312	0	72
XHO	48	312	5	72
XTP	49	12	1
XTP	49	12	6
XHO	49	24	2	72
XHO	49	24	7	72
XTP	49	108	1
XTP	49	108	6
XHO	49	120	0	72
XHO	49	120	5	72
XTP	49	204	1
XTP	49	204	6
XHO	49	216	2	72
XHO	49	216	7	72
XTP	49	300	1
XTP	49	300	6
XHO	49	312	0	72
XHO	49	312	5	72
XTP	50	12	1
XTP	50	12	6
XHO	50	24	2	72
XHO	50	24	7	72
XTP	50	108	1
XTP	50	108	6
XHO	50	120	0	72
XHO	50	120	5	72
XTP	50	204	1
XTP	50	204	6
XHO	50	216	2	72
XHO	50	216	7	72
XTP	50	300	1
XTP	50	300	6
XHO	50	312	0	72
XHO	50	312	5	72
XTP	51	12	1
XTP	51	12	6
XHO	51	24	2	72
XHO	51	24	7	72
XTP	51	108	1
XTP	51	108	6
XHO	51	120	0	72
XHO	51	120	5	72
XTP	51	204	1
XTP	51	204	6
XTP	51	216	2
XTP	51	216	7
BRK	51	288	1
BRK	51	288	6
STR	52	0	1
SCR	52	0	1	96	192	5
TAP	52	0	5
TAP	52	96	6
TAP	52	192	7
TAP	52	288	7
TAP	53	0	2
STR	53	0	6
SCL	53	0	6	96	192	2
TAP	53	96	1
TAP	53	192	0
TAP	53	288	0
TAP	54	0	3
HLD	54	0	5	64
HLD	54	96	2	64
TAP	54	96	4
TAP	54	192	3
HLD	54	192	5	64
HLD	54	288	2	64
TAP	54	288	4
TAP	55	0	5
TAP	55	32	4
TAP	55	64	6
TAP	55	96	2
TAP	55	128	3
TAP	55	160	1
BRK	55	192	7
HLD	56	0	1	192
TTP	56	96	1	B	0	M1
TTP	56	96	2	B	0	M1
HLD	56	192	6	192
TTP	56	288	5	B	0	M1
TTP	56	288	6	B	0	M1
HLD	57	0	0	288
TTP	57	96	0	B	0	M1
TTP	57	96	7	B	0	M1
TTP	57	192	0	C	0	M1
TTP	57	288	3	B	0	M1
TTP	57	288	4	B	0	M1
HLD	58	0	6	96
HLD	58	96	4	96
HLD	58	192	3	96
TAP	58	288	0
XTP	59	0	1
XTP	59	0	5
XTP	59	48	2
XTP	59	48	6
XTP	59	96	1
XTP	59	96	5
TTP	59	144	0	B	0	M1
TTP	59	144	0	E	0	M1
TTP	59	144	1	B	0	M1
TTP	59	192	0	B	0	M1
TTP	59	192	0	E	0	M1
TTP	59	192	1	B	0	M1
XHO	60	0	0	1344
XTP	60	0	5
TTP	61	0	4	B	0	M1
TTP	61	0	5	E	0	M1
TTP	62	0	3	B	0	M1
TTP	62	0	3	E	0	M1
TTP	63	0	0	C	0	M1
TTP	64	0	0	B	0	M1
TTP	64	96	1	B	0	M1
TTP	64	192	2	B	0	M1
TTP	64	288	3	B	0	M1
TTP	65	0	4	B	0	M1
TTP	65	96	5	B	0	M1
TTP	65	192	6	B	0	M1
TTP	65	288	7	B	0	M1
TTP	66	0	1	E	0	M1
TTP	66	0	7	E	0	M1
TTP	66	96	2	E	0	M1
TTP	66	96	6	E	0	M1
TTP	66	192	3	E	0	M1
TTP	66	192	5	E	0	M1
XTP	66	288	3
XTP	66	288	4
XTP	66	336	3
XTP	66	336	4
BRK	67	48	1
BRK	67	48	6
BRK	67	96	1
BRK	67	96	6
XTP	67	288	2
XTP	67	288	5
STR	68	0	4
SI_	68	0	4	96	48	7
TAP	68	48	4
STR	68	96	1
SI_	68	96	1	96	48	5
TAP	68	144	1
STR	68	192	0
SCL	68	192	0	96	96	4
TAP	68	264	4
HLD	68	336	2	96
STR	69	48	3
SV_	69	48	3	96	48	6
TAP	69	96	3
STR	69	144	0
SI_	69	144	0	96	48	4
TAP	69	192	0
STR	69	264	7
SCL	69	264	7	96	72	2
TTP	69	336	0	C	1	M1
XST	70	96	0
SI_	70	96	0	96	48	4
STR	70	192	5
SI_	70	192	5	96	48	1
STR	70	288	2
SCR	70	288	2	96	168	0
HLD	70	336	2	192
TAP	71	240	4
TAP	71	288	3
TAP	71	336	2
HLD	72	0	1	192
TAP	72	48	3
TAP	72	96	4
TAP	72	144	5
HLD	72	192	6	192
TAP	72	240	4
TAP	72	288	3
TAP	72	336	2
HLD	73	0	1	192
TAP	73	48	3
TAP	73	96	4
TAP	73	144	5
TAP	73	192	6
BRK	73	336	2
BRK	73	336	6
BRK	74	0	1
BRK	74	0	5
BRK	74	96	2
BRK	74	96	6
BRK	74	144	1
BRK	74	144	5
TAP	74	240	2
TAP	74	240	6
TAP	74	336	1
TAP	74	336	6
TAP	75	0	1
TAP	75	0	6
TAP	75	48	2
TAP	75	72	3
TAP	75	96	1
TAP	75	144	5
TAP	75	168	4
TAP	75	192	6
TAP	75	240	0
TAP	75	240	7
BRK	75	288	1
BRK	75	288	6
STR	76	0	3
SI_	76	0	3	96	48	0
TAP	76	48	3
STR	76	96	6
SI_	76	96	6	96	48	2
TAP	76	144	6
STR	76	192	7
SCR	76	192	7	96	96	3
TAP	76	264	3
HLD	76	336	5	96
STR	77	48	4
SV_	77	48	4	96	48	1
TAP	77	96	4
STR	77	144	7
SI_	77	144	7	96	48	3
TAP	77	192	7
STR	77	264	0
SCR	77	264	0	96	72	5
TTP	77	336	0	C	1	M1
XST	78	96	7
SI_	78	96	7	96	48	3
STR	78	192	2
SI_	78	192	2	96	48	6
STR	78	288	5
SCL	78	288	5	96	168	7
HLD	78	336	5	192
TAP	79	240	3
TAP	79	288	4
TAP	79	336	5
HLD	80	0	6	192
TAP	80	48	4
TAP	80	96	3
TAP	80	144	2
HLD	80	192	1	192
TAP	80	240	3
TAP	80	288	4
TAP	80	336	5
HLD	81	0	6	192
TAP	81	48	3
TAP	81	96	2
TAP	81	144	1
TAP	81	192	0
TAP	81	240	0
TAP	81	288	1
TAP	81	288	5
HLD	81	336	1	96
HLD	81	336	5	96
STR	82	96	7
SI_	82	96	7	96	48	3
HLD	82	192	2	96
TAP	82	288	6
HLD	82	336	6	96
HLD	83	48	4	48
HLD	83	96	2	48
HLD	83	144	0	48
HLD	83	192	6	48
STR	83	240	2
SCL	83	240	2	96	240	5
TAP	83	288	7
BRK	83	336	7
THO	84	240	0	480	C	1	M1
BRK	85	336	0
XTP	87	0	3
XHO	87	0	4	72
XTP	87	72	3
XTP	87	96	4
XTP	87	144	2
XTP	87	144	5
XHO	87	192	2	48
XHO	87	192	5	48
BRK	87	288	1
BRK	87	288	6
XHO	88	0	0	96
XHO	88	0	5	96
XTP	88	108	1
XTP	88	108	6
XHO	88	120	2	72
XHO	88	120	7	72
XTP	88	204	1
XTP	88	204	6
XHO	88	216	0	72
XHO	88	216	5	72
XTP	88	300	1
XTP	88	300	6
XHO	88	312	2	72
XHO	88	312	7	72
XTP	89	12	1
XTP	89	12	6
XHO	89	24	0	72
XHO	89	24	5	72
XTP	89	108	1
XTP	89	108	6
XHO	89	120	2	72
XHO	89	120	7	72
XTP	89	204	1
XTP	89	204	6
XHO	89	216	0	72
XHO	89	216	5	72
XTP	89	300	1
XTP	89	300	6
XHO	89	312	2	72
XHO	89	312	7	72
XTP	90	12	1
XTP	90	12	6
XHO	90	24	0	72
XHO	90	24	5	72
XTP	90	108	1
XTP	90	108	6
XHO	90	120	2	72
XHO	90	120	7	72
XTP	90	204	1
XTP	90	204	6
XTP	90	216	0
XTP	90	216	5
XTP	90	288	2
XTP	90	288	7
XTP	90	336	2
XTP	90	336	7
XTP	91	48	0
XTP	91	48	5
XTP	91	96	0
XTP	91	96	5
XHO	91	192	2	72
XHO	91	192	7	72
TTP	92	96	5	E	0	M1
TTP	92	112	4	B	0	M1
TTP	92	128	3	B	0	M1
TTP	92	144	3	E	0	M1

T_REC_TAP	242
T_REC_BRK	44
T_REC_XTP	120
T_REC_HLD	76
T_REC_XHO	62
T_REC_STR	41
T_REC_BST	1
T_REC_XST	6
T_REC_TTP	79
T_REC_THO	1
T_REC_SLD	48
T_REC_ALL	720
T_NUM_TAP	488
T_NUM_BRK	45
T_NUM_HLD	139
T_NUM_SLD	48
T_NUM_ALL	720
T_JUDGE_TAP	533
T_JUDGE_HLD	354
T_JUDGE_SLD	48
T_JUDGE_ALL	935
TTM_EACHPAIRS	140
TTM_SCR_TAP	244000
TTM_SCR_BRK	117000
TTM_SCR_HLD	139000
TTM_SCR_SLD	72000
TTM_SCR_ALL	572000
TTM_SCR_S	550500
TTM_SCR_SS	567500
TTM_RAT_ACV	10079

