VERSION	0.00.00	1.03.00
FES_MODE	0
BPM_DEF	154.000	154.000	154.000	154.000
MET_DEF	4	4
RESOLUTION	384
CLK_DEF	384
COMPATIBLE_CODE	MA2

BPM	0	0	154.000
MET	0	0	4	4

BRK	2	0	0
XTP	4	336	3
XTP	4	336	4
XTP	5	48	1
XTP	5	48	6
XTP	5	96	0
XTP	5	96	7
BRK	5	288	0
TAP	6	0	2
TAP	6	0	7
TAP	6	96	0
TAP	6	96	5
TAP	6	192	2
TAP	6	192	7
TAP	6	288	0
TAP	6	288	5
TAP	7	0	2
TAP	7	0	7
TAP	7	96	0
TAP	7	96	5
TAP	7	192	2
TAP	7	192	7
TAP	7	288	0
TAP	7	288	5
TAP	8	0	1
TAP	8	0	7
TAP	8	96	0
TAP	8	96	6
TAP	8	192	1
TAP	8	192	7
TAP	8	288	0
TAP	8	288	6
TAP	9	0	2
TAP	9	0	7
TAP	9	96	0
TAP	9	96	5
TAP	9	192	2
TAP	9	192	7
TAP	9	288	0
TAP	9	336	0
TAP	10	0	0
TAP	10	0	5
TAP	10	96	2
TAP	10	96	7
TAP	10	192	0
TAP	10	192	5
TAP	10	288	2
TAP	10	288	7
TAP	11	0	0
TAP	11	0	5
TAP	11	96	2
TAP	11	96	7
TAP	11	192	0
TAP	11	192	5
TAP	11	288	2
TAP	11	288	7
TAP	12	0	0
TAP	12	0	5
TAP	12	96	2
TAP	12	96	7
TAP	12	192	0
TAP	12	192	5
TAP	12	288	2
TAP	12	288	7
TAP	13	0	0
TAP	13	48	0
BRK	13	96	7
TAP	13	288	7
TAP	14	0	6
TAP	14	96	4
TAP	14	96	5
TAP	14	192	3
TAP	14	288	2
TAP	14	288	4
TAP	15	0	1
TAP	15	96	2
TAP	15	96	3
TAP	15	192	4
TAP	15	288	3
TAP	15	288	5
TAP	16	0	6
TAP	16	96	4
TAP	16	96	5
TAP	16	192	3
TAP	16	288	2
TAP	16	288	4
HLD	17	0	1	96
HLD	17	96	3	96
TAP	17	192	4
TAP	17	288	2
TAP	17	288	5
STR	18	0	7
SCL	18	0	7	96	96	4
XTP	18	240	2
XTP	18	288	2
STR	19	0	4
SCR	19	0	4	96	96	7
XTP	19	240	2
XTP	19	288	2
HLD	20	0	1	96
HLD	20	96	3	96
HLD	20	192	4	96
TAP	20	288	6
XTP	21	0	0
XTP	21	0	7
XTP	21	48	0
XTP	21	48	7
XTP	21	96	0
XTP	21	96	7
TAP	21	288	2
TAP	21	288	5
TAP	22	0	0
TAP	22	96	2
TAP	22	96	4
TAP	22	192	5
TAP	22	288	4
TAP	22	288	6
TAP	23	0	7
TAP	23	96	3
TAP	23	96	5
TAP	23	192	2
TAP	23	288	1
TAP	23	288	3
TAP	24	0	0
TAP	24	96	2
TAP	24	96	4
TAP	24	192	5
TAP	24	288	4
TAP	24	288	6
HLD	25	0	6	96
HLD	25	96	4	96
TAP	25	192	3
TAP	25	288	2
TAP	25	288	5
STR	26	0	7
SCL	26	0	7	96	96	4
XTP	26	240	2
XTP	26	288	2
STR	27	0	4
SCR	27	0	4	96	96	7
XTP	27	240	2
XTP	27	288	2
TAP	28	0	1
TAP	28	0	3
TAP	28	96	3
TAP	28	96	4
HLD	28	192	4	72
TAP	28	192	6
HLD	28	264	3	72
TAP	28	336	1
TAP	29	48	0
TAP	29	48	4
TAP	29	96	0
TAP	29	96	4
TAP	29	192	2
TAP	29	192	6
TAP	29	288	1
TAP	29	288	5
TAP	30	0	3
HLD	30	0	7	96
TAP	30	96	0
TAP	30	192	3
TAP	30	192	4
TAP	30	264	2
TAP	30	264	5
TAP	30	336	1
TAP	30	336	6
XTP	31	48	0
XTP	31	48	1
XTP	31	96	0
XTP	31	96	1
XTP	31	144	0
XTP	31	144	1
XTP	31	192	0
XTP	31	192	1
TAP	32	0	6
TAP	32	0	7
TAP	32	48	6
TAP	32	48	7
TAP	32	96	0
TAP	32	96	5
TAP	32	192	2
HLD	32	192	7	72
HLD	32	264	1	72
TAP	32	336	3
TAP	33	48	4
TAP	33	96	4
TAP	33	144	3
TAP	33	192	5
XST	33	264	2
SCR	33	264	2	96	96	5
XTP	33	264	6
HLD	34	96	7	96
TAP	34	192	4
STR	34	240	4
SCL	34	240	4	96	144	0
TAP	35	240	1
HLD	35	288	1	192
TAP	36	0	0
HLD	36	96	6	192
TAP	36	192	5
HLD	36	288	2	192
TAP	37	0	3
HLD	37	96	4	96
BRK	37	192	0
XTP	37	336	4
XTP	37	336	5
XTP	38	0	3
XTP	38	0	6
XTP	38	96	2
XTP	38	96	3
XTP	38	144	1
XTP	38	144	4
XTP	38	240	2
XTP	38	240	5
TTP	38	336	0	C	1	M1
TTP	38	336	3	B	0	M1
TTP	38	336	4	B	0	M1
TAP	39	240	7
TAP	39	288	7
TAP	40	0	0
TAP	40	0	1
TAP	40	48	0
TAP	40	48	1
TAP	40	96	2
TAP	40	96	7
HLD	40	192	0	72
TAP	40	192	5
HLD	40	264	6	72
TAP	40	336	4
TAP	41	48	3
TAP	41	96	3
TAP	41	144	4
TAP	41	192	2
XTP	41	264	1
XST	41	264	5
SCL	41	264	5	96	96	2
HLD	42	96	0	96
STR	42	192	3
SXR	42	192	3	96	240	5
TAP	43	240	6
HLD	43	288	6	192
TAP	44	0	7
HLD	44	96	1	192
TAP	44	192	2
HLD	44	288	5	192
TAP	45	0	4
HLD	45	96	3	96
TAP	45	192	7
TAP	45	240	7
XST	45	336	1
SI_	45	336	1	96	96	4
XST	45	336	6
SI_	45	336	6	96	96	3
TAP	46	288	0
TAP	46	288	7
TAP	46	336	0
TAP	46	336	7
TAP	47	48	3
TAP	47	96	3
TAP	47	144	4
TAP	47	192	2
TAP	47	192	5
BRK	47	288	1
BRK	47	288	6
TAP	48	0	2
TAP	48	0	7
TAP	48	96	0
TAP	48	96	5
TAP	48	192	2
TAP	48	192	7
TAP	48	288	0
TAP	48	288	5
TAP	49	0	1
TAP	49	0	7
TAP	49	96	0
TAP	49	96	6
TAP	49	192	1
TAP	49	192	7
TAP	49	288	0
TAP	49	288	6
TAP	50	0	2
TAP	50	0	7
TAP	50	96	0
TAP	50	96	5
TAP	50	192	2
TAP	50	192	7
TAP	50	288	0
TAP	50	288	5
TAP	51	0	1
TAP	51	0	7
TAP	51	96	0
TAP	51	96	6
TAP	51	192	7
TAP	51	240	7
TAP	51	288	0
TTP	52	0	3	E	0	M1
TTP	52	96	4	E	0	M1
TTP	52	192	5	E	0	M1
TTP	52	288	0	C	0	M1
TTP	52	288	6	E	0	M1
TTP	53	0	7	E	0	M1
TTP	53	96	0	E	0	M1
TTP	53	192	1	E	0	M1
TTP	53	288	0	C	0	M1
TTP	53	288	2	E	0	M1
TTP	54	0	0	B	0	M1
TTP	54	0	7	E	0	M1
TTP	54	96	1	E	0	M1
TTP	54	96	7	B	0	M1
TTP	54	192	3	B	0	M1
TTP	54	192	5	B	0	M1
TTP	54	288	2	B	0	M1
TTP	54	288	4	B	0	M1
TTP	55	0	0	E	0	M1
TTP	55	96	1	E	0	M1
TTP	55	96	7	E	0	M1
TTP	55	192	0	C	1	M1
HLD	56	0	0	96
HLD	56	0	6	96
HLD	56	192	1	96
HLD	56	192	7	96
HLD	57	0	2	96
TAP	57	96	3
HLD	57	192	5	96
TAP	57	288	4
HLD	58	0	2	96
HLD	58	96	0	96
HLD	58	192	7	96
HLD	58	288	5	96
TAP	59	0	2
TAP	59	48	3
TAP	59	48	4
TAP	59	96	3
TAP	59	96	4
XTP	59	144	2
XTP	59	144	5
XTP	59	192	2
XTP	59	192	5
HLD	60	0	0	2496
TAP	64	0	4
TAP	64	96	4
TAP	64	192	4
TAP	64	288	4
TAP	65	0	4
TAP	65	96	4
TAP	65	192	4
TAP	65	288	4
TAP	66	0	5
TAP	66	96	6
TAP	66	192	7
TAP	66	288	0
TAP	66	288	7
TAP	66	336	0
TAP	66	336	7
BRK	67	48	1
BRK	67	48	6
BRK	67	96	1
BRK	67	96	6
TAP	67	288	3
TAP	67	288	4
TAP	68	0	0
TAP	68	0	1
TAP	68	48	0
TAP	68	48	1
TAP	68	96	2
TAP	68	96	7
HLD	68	192	0	72
TAP	68	192	5
HLD	68	264	6	72
TAP	68	336	4
TAP	69	48	3
TAP	69	96	3
TAP	69	144	4
TAP	69	192	2
XTP	69	264	1
XST	69	264	5
SCL	69	264	5	96	96	2
HLD	70	96	0	96
STR	70	192	3
SCR	70	192	3	96	240	2
TAP	71	240	1
HLD	71	288	1	192
TAP	72	0	0
HLD	72	96	6	192
TAP	72	192	5
HLD	72	288	2	192
TAP	73	0	3
HLD	73	96	4	96
BRK	73	192	0
XTP	73	336	2
XTP	73	336	3
XTP	74	0	1
XTP	74	0	4
XTP	74	96	4
XTP	74	96	5
XTP	74	144	3
XTP	74	144	6
XTP	74	240	2
XTP	74	240	5
TTP	74	336	0	C	1	M1
TTP	74	336	3	B	0	M1
TTP	74	336	4	B	0	M1
TAP	75	240	0
TAP	75	288	0
TAP	76	0	6
TAP	76	0	7
TAP	76	48	6
TAP	76	48	7
TAP	76	96	0
TAP	76	96	5
TAP	76	192	2
HLD	76	192	7	72
HLD	76	264	1	72
TAP	76	336	3
TAP	77	48	4
TAP	77	96	4
TAP	77	144	3
TAP	77	192	5
XST	77	264	2
SCR	77	264	2	96	96	5
XTP	77	264	6
HLD	78	96	7	96
STR	78	192	4
SXL	78	192	4	96	240	1
TAP	79	240	6
HLD	79	288	6	192
TAP	80	0	7
HLD	80	96	1	192
TAP	80	192	2
HLD	80	288	5	192
TAP	81	0	4
HLD	81	96	3	96
TAP	81	192	7
TAP	81	240	7
HLD	81	336	1	96
HLD	81	336	6	96
TAP	82	96	1
TAP	82	96	6
TAP	82	192	3
TAP	82	192	4
TAP	82	288	2
TAP	82	288	5
TAP	82	336	2
TAP	82	336	5
TAP	83	48	0
TAP	83	96	0
TAP	83	144	7
STR	83	192	7
SCL	83	192	7	96	288	1
XTP	84	240	0
XHO	84	336	0	144
TAP	85	192	2
TAP	85	192	5
TAP	85	240	2
TAP	85	240	5
BRK	85	336	0
XTP	86	336	3
XTP	86	336	4
TAP	87	48	3
TAP	87	96	3
TAP	87	144	4
TAP	87	192	2
TAP	87	192	5
XTP	87	288	1
XTP	87	288	6
TAP	88	0	2
TAP	88	0	7
TAP	88	96	0
TAP	88	96	5
TAP	88	192	2
TAP	88	192	7
TAP	88	288	0
TAP	88	288	5
TAP	89	0	1
TAP	89	0	7
TAP	89	96	0
TAP	89	96	6
TAP	89	192	1
TAP	89	192	7
TAP	89	288	0
TAP	89	288	6
XTP	90	0	2
XTP	90	0	7
XTP	90	96	0
XTP	90	96	5
XTP	90	192	2
XTP	90	192	7
XTP	90	288	0
XTP	90	288	5
XTP	91	0	2
XTP	91	0	7
XTP	91	96	0
XTP	91	96	5
XTP	91	192	2
XTP	91	192	7
XHO	91	288	0	216
XHO	91	288	5	216

T_REC_TAP	299
T_REC_BRK	12
T_REC_XTP	75
T_REC_HLD	51
T_REC_XHO	3
T_REC_STR	9
T_REC_BST	0
T_REC_XST	6
T_REC_TTP	28
T_REC_THO	0
T_REC_SLD	15
T_REC_ALL	498
T_NUM_TAP	417
T_NUM_BRK	12
T_NUM_HLD	54
T_NUM_SLD	15
T_NUM_ALL	498
T_JUDGE_TAP	429
T_JUDGE_HLD	189
T_JUDGE_SLD	15
T_JUDGE_ALL	633
TTM_EACHPAIRS	149
TTM_SCR_TAP	208500
TTM_SCR_BRK	31200
TTM_SCR_HLD	54000
TTM_SCR_SLD	22500
TTM_SCR_ALL	316200
TTM_SCR_S	305550
TTM_SCR_SS	315000
TTM_RAT_ACV	10038

