VERSION	0.00.00	1.03.00
FES_MODE	0
BPM_DEF	154.000	154.000	154.000	154.000
MET_DEF	4	4
RESOLUTION	384
CLK_DEF	384
COMPATIBLE_CODE	MA2

BPM	0	0	154.000
MET	0	0	4	4

XHO	2	0	5	384
HLD	3	0	4	384
HLD	4	0	3	384
XTP	5	0	2
XTP	5	192	2
XTP	5	192	3
TAP	6	0	2
TAP	6	96	2
TAP	6	192	3
TAP	7	0	5
TAP	7	96	5
TAP	7	192	4
TAP	8	0	2
TAP	8	96	2
TAP	8	192	3
TAP	9	0	4
TAP	9	96	4
TAP	9	192	3
TAP	9	192	5
TAP	10	0	6
TAP	10	96	6
TAP	10	192	7
TAP	11	0	1
TAP	11	96	1
TAP	11	192	0
TAP	12	0	6
TAP	12	96	6
TAP	12	192	7
TAP	13	0	0
TAP	13	0	7
BRK	13	96	1
BRK	13	96	6
HLD	14	0	2	192
TAP	14	192	3
HLD	15	0	5	192
TAP	15	192	4
HLD	16	0	2	192
TAP	16	192	3
HLD	17	0	4	96
HLD	17	0	5	96
TAP	17	192	4
TAP	17	192	5
STR	18	0	5
SI_	18	0	5	96	144	2
STR	19	0	1
SI_	19	0	1	96	144	4
TAP	20	0	5
TAP	20	192	6
XTP	21	0	0
XTP	21	0	7
XTP	21	96	1
XTP	21	96	6
HLD	22	0	1	192
TAP	22	192	0
HLD	23	0	6	192
TAP	23	192	7
HLD	24	0	1	192
TAP	24	192	0
HLD	25	0	6	96
HLD	25	0	7	96
TAP	25	192	6
TAP	25	192	7
STR	26	0	6
SI_	26	0	6	96	144	2
STR	27	0	1
SI_	27	0	1	96	144	5
STR	28	0	7
SCL	28	0	7	96	288	2
XTP	29	192	1
TAP	30	0	0
TAP	30	0	1
TAP	30	192	0
TAP	30	192	1
TAP	31	0	0
TAP	31	0	1
TAP	31	96	0
TAP	31	96	1
BRK	31	192	0
BRK	31	192	1
TAP	32	0	1
TAP	32	96	1
TAP	32	192	0
TAP	32	192	1
TAP	32	288	0
TAP	32	288	1
TAP	33	0	2
TAP	33	96	2
TAP	33	192	1
TAP	33	192	3
TAP	34	0	5
TAP	34	96	5
TAP	34	192	4
TAP	34	192	5
TAP	34	288	4
TAP	34	288	5
TAP	35	0	5
TAP	35	96	5
TAP	35	192	4
TAP	35	192	6
STR	36	0	3
SI_	36	0	3	96	144	0
STR	37	0	7
SI_	37	0	7	96	144	4
TAP	38	0	3
TAP	38	96	3
TAP	38	192	2
TAP	38	192	4
TAP	39	0	4
TAP	39	96	4
TAP	39	192	2
TAP	39	192	5
TAP	40	0	1
TAP	40	96	0
TAP	40	96	1
TAP	40	192	6
TAP	40	288	6
TAP	40	288	7
TAP	41	0	5
TAP	41	96	4
TAP	41	96	5
TAP	41	192	2
TAP	41	288	2
TAP	41	288	3
TAP	42	0	1
TAP	42	96	0
TAP	42	192	6
TAP	42	288	7
STR	43	0	0
SI_	43	0	0	96	144	4
STR	43	0	7
SI_	43	0	7	96	144	3
STR	44	0	3
SI_	44	0	3	96	144	0
STR	45	0	7
SI_	45	0	7	96	144	4
TAP	46	0	3
TAP	46	96	3
TAP	46	192	2
TAP	46	192	4
XTP	47	0	3
XTP	47	0	4
XTP	47	96	3
XTP	47	96	4
XTP	47	192	2
XTP	47	192	5
TAP	48	0	6
TAP	48	96	6
TAP	48	192	7
TAP	49	0	1
TAP	49	96	1
TAP	49	192	0
TAP	50	0	6
TAP	50	96	6
TAP	50	192	7
TAP	51	0	0
TAP	51	96	0
XTP	51	192	1
XTP	51	192	6
TTP	52	0	0	B	0	L1
TTP	53	0	1	B	0	L1
TTP	54	0	2	B	0	L1
TTP	55	0	3	B	0	L1
TTP	56	0	4	B	0	L1
TTP	57	0	5	B	0	L1
TTP	58	0	6	B	0	L1
TTP	59	0	0	C	1	L1
THO	60	0	0	1344	C	0	L1
XTP	64	0	0
TAP	64	192	1
TAP	65	0	2
TAP	65	192	3
TAP	66	0	4
TAP	66	192	5
TAP	67	0	1
TAP	67	0	6
XTP	67	96	1
XTP	67	96	6
TAP	68	0	1
TAP	68	96	1
TAP	68	192	0
TAP	68	192	1
TAP	68	288	0
TAP	68	288	1
TAP	69	0	2
TAP	69	96	2
TAP	69	192	1
TAP	69	192	3
TAP	70	0	5
TAP	70	96	5
TAP	70	192	4
TAP	70	192	5
TAP	70	288	4
TAP	70	288	5
TAP	71	0	5
TAP	71	96	5
TAP	71	192	4
TAP	71	192	6
STR	72	0	3
SCL	72	0	3	96	144	0
STR	73	0	7
SCL	73	0	7	96	144	4
TAP	74	0	3
TAP	74	96	3
TAP	74	192	2
TAP	74	192	4
TAP	75	0	4
TAP	75	96	4
TAP	75	192	2
TAP	75	192	5
TAP	76	0	2
TAP	76	96	2
TAP	76	96	3
TAP	76	192	5
TAP	76	288	4
TAP	76	288	5
TAP	77	0	6
TAP	77	96	6
TAP	77	96	7
TAP	77	192	1
TAP	77	288	0
TAP	77	288	1
TAP	78	0	2
TAP	78	96	3
TAP	78	192	4
TAP	78	288	5
HLD	79	0	1	192
HLD	79	0	6	192
STR	80	0	2
SCL	80	0	2	96	144	7
STR	81	0	6
SCL	81	0	6	96	144	3
TAP	82	0	2
TAP	82	96	3
TAP	82	192	2
TAP	82	192	4
XTP	83	0	3
XTP	83	0	4
XTP	83	96	3
XTP	83	96	4
XTP	83	192	2
XTP	83	192	5
STR	84	0	2
SCL	84	0	2	96	384	5
TTP	85	336	0	C	1	L1
TAP	88	0	6
TAP	88	96	6
TAP	88	192	7
TAP	89	0	1
TAP	89	96	1
TAP	89	192	0
TAP	90	0	6
TAP	90	96	6
TAP	90	192	7
XTP	91	0	0
XTP	91	0	7
XTP	91	96	0
XTP	91	96	7
XHO	91	192	1	288
XHO	91	192	6	288

T_REC_TAP	167
T_REC_BRK	4
T_REC_XTP	29
T_REC_HLD	14
T_REC_XHO	3
T_REC_STR	16
T_REC_BST	0
T_REC_XST	0
T_REC_TTP	9
T_REC_THO	1
T_REC_SLD	16
T_REC_ALL	259
T_NUM_TAP	221
T_NUM_BRK	4
T_NUM_HLD	18
T_NUM_SLD	16
T_NUM_ALL	259
T_JUDGE_TAP	225
T_JUDGE_HLD	104
T_JUDGE_SLD	16
T_JUDGE_ALL	345
TTM_EACHPAIRS	55
TTM_SCR_TAP	110500
TTM_SCR_BRK	10400
TTM_SCR_HLD	18000
TTM_SCR_SLD	24000
TTM_SCR_ALL	162900
TTM_SCR_S	157650
TTM_SCR_SS	162500
TTM_RAT_ACV	10024

