VERSION	0.00.00	1.03.00
FES_MODE	0
BPM_DEF	154.000	154.000	154.000	154.000
MET_DEF	4	4
RESOLUTION	384
CLK_DEF	384
COMPATIBLE_CODE	MA2

BPM	0	0	154.000
MET	0	0	4	4

HLD	2	0	0	384
HLD	4	0	7	384
TAP	6	0	0
TAP	6	192	0
TAP	7	0	0
TAP	8	0	7
TAP	8	192	7
TAP	9	0	7
TAP	10	0	0
TAP	10	192	7
TAP	11	0	0
TAP	12	0	7
TAP	12	192	0
BRK	13	0	7
TAP	14	0	0
TAP	14	192	0
TAP	15	0	0
TAP	16	0	1
TAP	16	192	1
TAP	17	0	1
TAP	18	0	2
TAP	18	192	2
TAP	19	0	2
TAP	20	0	3
TAP	20	0	4
TAP	20	192	3
TAP	20	192	4
XTP	21	0	3
XTP	21	0	4
TAP	22	0	4
TAP	22	192	4
TAP	23	0	4
TAP	24	0	5
TAP	24	192	5
TAP	25	0	5
TAP	26	0	6
TAP	26	192	6
TAP	27	0	6
TAP	28	0	0
TAP	28	0	7
TAP	28	192	0
TAP	28	192	7
BRK	29	0	0
BRK	29	0	7
THO	30	0	0	384	C	1	L1
TAP	32	0	7
TAP	32	96	7
TAP	32	192	7
TAP	33	0	6
TAP	33	96	6
TAP	33	192	6
TAP	34	0	4
TAP	34	0	5
TAP	34	192	4
TAP	34	192	5
HLD	35	0	4	192
HLD	35	0	5	192
TAP	36	0	3
TAP	36	96	3
TAP	36	192	3
TAP	36	192	4
TAP	37	0	4
TAP	37	96	4
TAP	37	192	3
TAP	37	192	4
XTP	38	0	3
XTP	38	0	4
XTP	38	192	3
XTP	38	192	4
XTP	39	0	2
XTP	39	0	5
TAP	40	0	3
TAP	40	96	3
TAP	40	192	3
TAP	41	0	2
TAP	41	96	2
TAP	41	192	2
TAP	42	0	0
TAP	42	0	1
TAP	42	192	0
TAP	42	192	1
HLD	43	0	0	192
HLD	43	0	1	192
TAP	44	0	7
TAP	44	96	7
TAP	44	192	0
TAP	44	192	7
TAP	45	0	0
TAP	45	96	0
TAP	45	192	0
TAP	45	192	7
TAP	46	0	0
TAP	46	0	7
TAP	46	192	0
TAP	46	192	7
TAP	47	0	0
TAP	47	96	7
TAP	47	192	0
STR	48	0	0
SI_	48	0	0	96	288	3
STR	48	0	7
SI_	48	0	7	96	288	4
STR	50	0	3
SI_	50	0	3	96	288	0
STR	50	0	4
SI_	50	0	4	96	288	7
TTP	52	0	0	B	0	L1
TTP	53	0	1	B	0	L1
TTP	54	0	2	B	0	L1
TTP	55	0	3	B	0	L1
TTP	55	0	4	B	0	L1
TTP	56	0	2	B	0	L1
TTP	56	0	5	B	0	L1
TTP	57	0	1	B	0	L1
TTP	57	0	6	B	0	L1
THO	58	0	0	384	C	1	L1
XHO	60	0	0	1344
TAP	64	0	0
TAP	64	192	0
TAP	65	0	0
TAP	65	96	0
TAP	65	192	0
TAP	66	0	0
TAP	66	96	0
TAP	66	192	0
XTP	67	0	0
TAP	68	0	7
TAP	68	96	7
TAP	68	192	0
TAP	68	192	7
TAP	69	0	6
TAP	69	96	6
TAP	69	192	6
TAP	69	192	7
TAP	70	0	4
TAP	70	0	5
TAP	70	96	4
TAP	70	96	5
TAP	70	192	4
TAP	70	192	5
HLD	71	0	4	192
HLD	71	0	5	192
TAP	72	0	3
TAP	72	96	3
TAP	72	192	2
TAP	72	192	4
TAP	73	0	4
TAP	73	96	4
TAP	73	192	3
TAP	73	192	5
TAP	74	0	3
TAP	74	0	4
TAP	74	96	3
TAP	74	96	4
TAP	74	192	3
TAP	74	192	4
XTP	75	0	2
XTP	75	0	5
TAP	76	0	3
TAP	76	96	3
TAP	76	192	3
TAP	76	192	4
TAP	77	0	2
TAP	77	96	2
TAP	77	192	2
TAP	77	192	3
TAP	78	0	0
TAP	78	0	1
TAP	78	96	0
TAP	78	96	1
TAP	78	192	0
TAP	78	192	1
HLD	79	0	0	192
HLD	79	0	1	192
TAP	80	0	7
TAP	80	96	7
TAP	80	192	0
TAP	80	192	6
TAP	81	0	0
TAP	81	96	0
TAP	81	192	1
TAP	81	192	7
TAP	82	0	0
TAP	82	0	7
TAP	82	96	0
TAP	82	96	7
TAP	82	192	0
TAP	82	192	7
TAP	83	0	0
TAP	83	96	0
TAP	83	192	7
TAP	83	288	7
STR	84	0	0
SI_	84	0	0	96	288	3
STR	84	0	7
SI_	84	0	7	96	288	4
XTP	86	0	3
XTP	86	0	4
STR	88	0	2
SI_	88	0	2	96	288	5
STR	90	0	1
SI_	90	0	1	96	288	6
HLD	92	0	0	2112

T_REC_TAP	148
T_REC_BRK	3
T_REC_XTP	13
T_REC_HLD	11
T_REC_XHO	1
T_REC_STR	8
T_REC_BST	0
T_REC_XST	0
T_REC_TTP	9
T_REC_THO	2
T_REC_SLD	8
T_REC_ALL	203
T_NUM_TAP	178
T_NUM_BRK	3
T_NUM_HLD	14
T_NUM_SLD	8
T_NUM_ALL	203
T_JUDGE_TAP	181
T_JUDGE_HLD	136
T_JUDGE_SLD	8
T_JUDGE_ALL	325
TTM_EACHPAIRS	48
TTM_SCR_TAP	89000
TTM_SCR_BRK	7800
TTM_SCR_HLD	14000
TTM_SCR_SLD	12000
TTM_SCR_ALL	122800
TTM_SCR_S	118850
TTM_SCR_SS	122500
TTM_RAT_ACV	10024

