VERSION	0.00.00	1.03.00
FES_MODE	0
BPM_DEF	140.000	140.000	140.000	140.000
MET_DEF	4	4
RESOLUTION	384
CLK_DEF	384
COMPATIBLE_CODE	MA2

BPM	0	0	140.000
MET	0	0	4	4

HLD	1	0	4	336
TAP	1	288	3
HLD	2	0	2	336
TAP	2	288	3
HLD	3	0	5	336
TAP	3	288	4
HLD	4	0	3	336
TAP	4	288	4
HLD	5	0	5	336
TAP	5	288	4
HLD	6	0	2	336
TAP	6	288	3
HLD	7	0	4	336
TAP	7	288	3
TAP	8	0	2
STR	8	96	3
SXL	8	96	3	96	96	3
STR	8	192	3
SCL	8	192	3	96	48	0
TAP	9	0	4
TAP	9	96	5
TAP	9	144	5
STR	9	192	4
SCL	9	192	4	96	48	1
TAP	9	192	6
STR	9	288	7
SCL	9	288	7	96	48	4
STR	10	0	2
SCL	10	0	2	96	48	7
TAP	10	96	5
TAP	10	192	0
TAP	10	192	4
STR	10	288	5
SI_	10	288	5	96	48	2
TAP	11	0	2
STR	11	96	1
SI_	11	96	1	96	48	6
TAP	11	192	6
STR	11	288	4
SCR	11	288	4	96	192	1
TAP	12	0	3
TAP	12	96	3
TAP	12	192	3
TAP	12	288	2
TAP	12	288	4
TAP	13	0	3
TAP	13	0	4
TAP	13	96	5
HLD	13	144	5	96
TAP	13	240	4
STR	13	288	3
SXL	13	288	3	96	96	3
SXR	13	288	3	96	96	3
TAP	13	288	6
TAP	14	192	1
TAP	14	192	5
STR	14	288	2
SCR	14	288	2	96	48	5
TAP	15	0	7
STR	15	96	6
SUL	15	96	6	96	48	2
TAP	15	192	2
STR	15	288	1
SCL	15	288	1	96	48	6
TAP	16	0	5
TAP	16	96	5
TAP	16	192	4
TAP	16	192	5
TAP	16	288	3
TAP	16	288	4
HLD	17	0	2	96
TAP	17	0	4
TAP	17	96	3
STR	17	144	3
SCR	17	144	3	96	48	6
TAP	17	240	0
TAP	17	288	0
STR	18	0	0
SCL	18	0	0	96	48	5
STR	18	0	7
SCR	18	0	7	96	48	2
XTP	18	192	2
XTP	18	192	5
STR	18	288	0
SV_	18	288	0	96	48	2
STR	18	288	4
SV_	18	288	4	96	48	6
STR	19	96	3
SV_	19	96	3	96	48	1
STR	19	96	7
SV_	19	96	7	96	48	5
STR	19	288	0
SCR	19	288	0	96	96	4
TAP	19	288	4
STR	20	0	4
SCR	20	0	4	96	96	0
STR	20	96	0
SCR	20	96	0	96	96	4
TAP	20	192	4
TAP	20	288	6
TAP	21	0	3
TAP	21	0	6
TAP	21	96	2
TAP	21	144	2
TAP	21	192	3
HLD	21	288	1	96
TAP	21	288	4
HLD	22	0	3	96
HLD	22	96	4	96
TAP	22	192	6
STR	22	288	3
SCL	22	288	3	96	96	0
TAP	22	288	7
TAP	23	0	5
STR	23	96	3
SCR	23	96	3	96	96	7
TAP	23	192	0
TAP	23	288	3
TAP	24	0	1
TAP	24	0	6
TAP	24	48	1
TAP	24	48	6
BST	24	96	0
SUR	24	96	0	96	48	4
BST	24	96	7
SUL	24	96	7	96	48	3
XTP	24	192	0
XTP	24	192	7
XTP	24	288	1
XTP	24	288	6
TAP	25	0	0
STR	25	0	5
SI_	25	0	5	96	48	0
TAP	25	96	2
TAP	25	144	2
TAP	25	192	1
STR	25	192	5
SI_	25	192	5	96	48	0
TAP	25	288	3
TAP	25	336	3
TAP	26	0	2
STR	26	0	5
SI_	26	0	5	96	48	0
TAP	26	96	4
TAP	26	144	4
STR	26	192	3
SCL	26	192	3	96	96	7
TAP	26	192	5
STR	26	288	7
SCL	26	288	7	96	96	3
STR	27	0	3
SCL	27	0	3	96	96	7
STR	27	96	7
SCL	27	96	7	96	96	3
TAP	27	192	3
TAP	27	288	7
TAP	28	0	1
TAP	28	0	5
TAP	28	96	3
TAP	28	96	4
STR	28	192	6
SCR	28	192	6	96	48	1
HLD	28	288	2	768
XTP	28	288	6
STR	29	0	3
SI_	29	0	3	96	48	0
XTP	29	96	3
STR	29	192	1
SI_	29	192	1	96	48	6
XTP	29	288	1
STR	30	0	7
SI_	30	0	7	96	48	4
XTP	30	96	7
STR	30	192	3
SI_	30	192	3	96	48	7
XTP	30	288	3
TAP	31	0	0
TAP	31	0	7
TAP	31	96	2
TAP	31	96	4
TAP	31	192	3
TAP	31	192	4
TAP	31	288	3
STR	31	288	5
SCL	31	288	5	96	48	2
BRK	32	0	0
STR	32	192	3
SI_	32	192	3	96	48	0
STR	32	192	4
SI_	32	192	4	96	48	7
XTP	32	288	3
XTP	32	288	4
STR	33	0	2
SI_	33	0	2	96	48	7
TAP	33	0	7
TAP	33	96	5
TAP	33	144	5
STR	33	192	2
SI_	33	192	2	96	48	7
TAP	33	192	6
TAP	33	288	4
TAP	33	336	4
STR	34	0	2
SI_	34	0	2	96	48	7
TAP	34	0	5
TAP	34	96	3
TAP	34	144	3
TAP	34	192	2
STR	34	192	4
SCR	34	192	4	96	96	0
STR	34	288	0
SCR	34	288	0	96	96	4
STR	35	0	4
SCR	35	0	4	96	96	0
STR	35	96	0
SCR	35	96	0	96	96	4
TAP	35	192	4
TAP	35	288	0
TAP	36	0	2
TAP	36	0	6
TAP	36	96	3
TAP	36	96	4
STR	36	192	2
SI_	36	192	2	96	48	5
TAP	36	192	5
TAP	36	288	7
TAP	36	336	7
TAP	37	0	4
HLD	37	0	6	96
TAP	37	96	0
TAP	37	192	2
STR	37	192	5
SI_	37	192	5	96	48	2
TAP	37	288	0
TAP	37	336	0
HLD	38	0	1	96
TAP	38	0	3
TAP	38	96	7
STR	38	192	2
SI_	38	192	2	96	48	5
TAP	38	192	5
TAP	38	288	7
TAP	38	336	7
TAP	39	0	4
HLD	39	0	6	96
TAP	39	96	0
TAP	39	192	2
STR	39	192	5
SI_	39	192	5	96	48	2
TAP	39	288	0
TAP	39	336	0
HLD	40	0	1	96
TAP	40	0	3
HLD	40	96	7	96
HLD	40	192	5	96
TAP	40	288	3
TAP	41	0	1
TAP	41	0	4
TAP	41	48	2
TAP	41	72	3
TAP	41	120	5
TAP	41	144	4
TAP	41	192	0
TAP	41	192	6
TAP	41	240	1
TAP	41	288	2
TAP	41	288	4
TAP	42	0	3
TAP	42	0	6
TAP	42	48	5
TAP	42	72	4
TAP	42	120	2
TAP	42	144	3
TAP	42	192	1
TAP	42	192	7
TAP	42	240	6
TAP	42	288	3
TAP	42	288	5
TAP	43	0	1
TAP	43	0	4
TAP	43	48	2
TAP	43	72	3
TAP	43	120	5
TAP	43	144	4
TAP	43	192	0
TAP	43	192	6
TAP	43	240	1
TAP	43	288	2
TAP	43	288	4
TAP	44	0	3
TAP	44	0	6
TAP	44	48	5
TAP	44	72	4
TAP	44	120	2
TAP	44	144	3
TAP	44	192	1
TAP	44	192	7
TAP	44	240	6
TAP	44	288	3
TAP	44	288	5
TAP	45	0	2
TAP	45	0	7
TAP	45	48	1
TAP	45	72	0
TAP	45	120	6
TAP	45	144	7
TAP	45	192	3
TAP	45	192	5
TAP	45	240	2
TAP	45	288	1
TAP	45	288	7
TAP	46	0	0
TAP	46	0	5
TAP	46	48	6
TAP	46	72	7
TAP	46	120	1
TAP	46	144	0
TAP	46	192	2
TAP	46	192	4
TAP	46	240	5
TAP	46	288	0
TAP	46	288	6
TAP	47	0	1
TAP	47	0	4
TAP	47	48	2
TAP	47	96	5
TAP	47	144	3
TAP	47	144	6
TAP	47	192	4
TAP	47	240	2
TAP	47	288	2
TAP	47	288	5
TAP	47	336	2
TAP	47	336	5
TAP	48	0	3
TAP	48	0	4
TAP	48	48	3
TAP	48	48	4
BRK	48	96	2
BRK	48	96	5
TTP	49	0	6	E	0	M1
TTP	49	12	5	E	0	M1
TTP	49	24	4	E	0	M1
HLD	49	144	2	96
TAP	49	288	2
TTP	50	0	5	E	0	M1
TTP	50	12	4	E	0	M1
TTP	50	24	3	E	0	M1
HLD	50	144	2	96
TAP	50	288	3
TTP	51	0	6	E	0	M1
TTP	51	12	5	E	0	M1
TTP	51	24	4	E	0	M1
HLD	51	144	2	96
TAP	51	288	2
TTP	52	0	5	E	0	M1
TTP	52	12	4	E	0	M1
TTP	52	24	3	E	0	M1
HLD	52	144	2	96
TAP	52	288	3
TTP	53	0	7	E	0	M1
TTP	53	12	6	E	0	M1
TTP	53	24	5	E	0	M1
HLD	53	144	3	96
TAP	53	288	3
TTP	54	0	6	E	0	M1
TTP	54	12	5	E	0	M1
TTP	54	24	4	E	0	M1
HLD	54	144	2	96
TAP	54	288	2
TTP	55	0	5	E	0	M1
TTP	55	12	4	E	0	M1
TTP	55	24	3	E	0	M1
HLD	55	144	2	96
XTP	55	288	3
XTP	55	288	4
TAP	56	0	2
TAP	56	0	7
TAP	56	48	2
TAP	56	48	7
TAP	56	96	1
TAP	56	96	6
TAP	56	144	1
TAP	56	144	6
TAP	56	192	0
TAP	56	192	5
TAP	56	240	0
TAP	56	240	5
TAP	56	288	1
TAP	56	288	6
TAP	56	336	1
TAP	56	336	6
BST	57	0	2
SI_	57	0	2	96	48	7
BRK	57	0	7
TAP	57	96	5
TAP	57	144	5
STR	57	192	2
SI_	57	192	2	96	48	7
TAP	57	192	6
TAP	57	288	4
TAP	57	336	4
STR	58	0	2
SI_	58	0	2	96	48	7
TAP	58	0	5
TAP	58	96	3
TAP	58	144	3
TAP	58	192	2
STR	58	192	4
SCR	58	192	4	96	96	0
STR	58	288	0
SCR	58	288	0	96	96	4
STR	59	0	4
SCR	59	0	4	96	96	0
STR	59	96	0
SCR	59	96	0	96	96	4
TAP	59	192	4
TAP	59	288	0
TAP	60	0	2
TAP	60	0	6
TAP	60	96	3
TAP	60	96	4
STR	60	192	1
SCL	60	192	1	96	48	6
TAP	60	288	5
STR	61	0	0
SI_	61	0	0	96	48	3
STR	61	0	4
SI_	61	0	4	96	48	7
XTP	61	96	0
XTP	61	96	4
STR	61	192	3
SI_	61	192	3	96	48	0
STR	61	192	7
SI_	61	192	7	96	48	4
XTP	61	288	3
XTP	61	288	7
STR	62	0	0
SCR	62	0	0	96	48	3
STR	62	0	4
SCR	62	0	4	96	48	7
XTP	62	96	0
XTP	62	96	4
STR	62	192	3
SV_	62	192	3	96	48	0
STR	62	192	7
SV_	62	192	7	96	48	4
XTP	62	288	3
XTP	62	288	7
TAP	63	0	0
TAP	63	0	4
TAP	63	96	2
TAP	63	96	6
TAP	63	192	3
TAP	63	192	5
STR	63	288	2
SCR	63	288	2	96	48	5
TAP	63	288	4
BRK	64	0	7
STR	64	192	3
SI_	64	192	3	96	48	0
STR	64	192	4
SI_	64	192	4	96	48	7
XTP	64	288	3
XTP	64	288	4
TAP	65	0	0
STR	65	0	5
SI_	65	0	5	96	48	0
TAP	65	96	2
TAP	65	144	2
TAP	65	192	1
STR	65	192	5
SI_	65	192	5	96	48	0
TAP	65	288	3
TAP	65	336	3
TAP	66	0	2
STR	66	0	5
SI_	66	0	5	96	48	0
TAP	66	96	4
TAP	66	144	4
STR	66	192	3
SCL	66	192	3	96	96	7
TAP	66	192	5
STR	66	288	7
SCL	66	288	7	96	96	3
STR	67	0	3
SCL	67	0	3	96	96	7
STR	67	96	7
SCL	67	96	7	96	96	3
TAP	67	192	3
TAP	67	288	7
TAP	68	0	1
TAP	68	0	5
TAP	68	96	3
TAP	68	96	5
STR	68	192	2
SI_	68	192	2	96	48	5
TAP	68	192	4
TAP	68	288	7
TAP	68	336	7
TAP	69	0	4
HLD	69	0	6	96
TAP	69	96	0
TAP	69	192	3
STR	69	192	5
SI_	69	192	5	96	48	2
TAP	69	288	0
TAP	69	336	0
HLD	70	0	1	96
TAP	70	0	3
TAP	70	96	7
STR	70	192	2
SI_	70	192	2	96	48	5
TAP	70	192	4
TAP	70	288	7
TAP	70	336	7
TAP	71	0	4
HLD	71	0	6	96
TAP	71	96	0
TAP	71	192	3
STR	71	192	5
SI_	71	192	5	96	48	2
TAP	71	288	0
TAP	71	336	0
TAP	72	0	1
HLD	72	0	3	96
HLD	72	96	0	96
HLD	72	192	6	96
STR	72	288	4
SCR	72	288	4	96	192	3
XTP	73	0	7
TTP	73	336	5	B	0	M1
TTP	73	348	4	B	0	M1
TTP	73	360	4	E	0	M1
TTP	75	0	2	B	0	M1
TTP	75	12	3	B	0	M1
TTP	75	24	4	E	0	M1
TTP	75	336	5	E	0	M1
TTP	75	348	4	B	0	M1
TTP	75	360	3	B	0	M1
TTP	77	0	3	E	0	M1
TTP	77	12	3	B	0	M1
TTP	77	24	4	B	0	M1
TTP	77	336	5	E	0	M1
TTP	77	348	4	E	0	M1
TTP	77	360	3	E	0	M1

T_REC_TAP	280
T_REC_BRK	5
T_REC_XTP	26
T_REC_HLD	32
T_REC_XHO	0
T_REC_STR	80
T_REC_BST	3
T_REC_XST	0
T_REC_TTP	36
T_REC_THO	0
T_REC_SLD	84
T_REC_ALL	546
T_NUM_TAP	422
T_NUM_BRK	8
T_NUM_HLD	32
T_NUM_SLD	84
T_NUM_ALL	546
T_JUDGE_TAP	430
T_JUDGE_HLD	113
T_JUDGE_SLD	84
T_JUDGE_ALL	627
TTM_EACHPAIRS	117
TTM_SCR_TAP	211000
TTM_SCR_BRK	20800
TTM_SCR_HLD	32000
TTM_SCR_SLD	126000
TTM_SCR_ALL	389800
TTM_SCR_S	377350
TTM_SCR_SS	389000
TTM_RAT_ACV	10020

