VERSION	0.00.00	1.03.00
FES_MODE	0
BPM_DEF	140.000	140.000	140.000	140.000
MET_DEF	4	4
RESOLUTION	384
CLK_DEF	384
COMPATIBLE_CODE	MA2

BPM	0	0	140.000
MET	0	0	4	4

HLD	5	0	2	384
HLD	6	0	3	384
HLD	7	0	4	384
TAP	8	0	5
TAP	8	96	5
TAP	8	192	5
TAP	8	288	3
TAP	8	288	5
TAP	9	0	4
TAP	9	96	2
TAP	9	192	1
TAP	9	192	3
TAP	9	288	2
TAP	10	0	3
TAP	10	96	5
TAP	10	192	3
TAP	10	192	6
TAP	10	288	5
TAP	11	0	4
TAP	11	96	2
TAP	11	192	1
TAP	11	192	3
TAP	11	288	2
TAP	12	0	4
TAP	12	96	5
TAP	12	192	3
TAP	12	192	6
TAP	13	0	3
TAP	13	0	4
TAP	13	96	2
TAP	13	192	1
TAP	13	192	3
TAP	13	288	2
TAP	14	0	3
TAP	14	0	4
TAP	14	96	5
TAP	14	192	4
TAP	14	192	6
TAP	14	288	5
TAP	15	0	3
TAP	15	0	4
TAP	15	96	2
TAP	15	96	3
TAP	15	192	3
TAP	15	192	4
TAP	15	288	4
TAP	15	288	5
TAP	16	0	3
TAP	16	0	4
TAP	16	96	3
TAP	16	96	4
XTP	16	192	2
XTP	16	192	5
HLD	17	0	2	480
TAP	17	96	3
TAP	17	192	3
TAP	17	288	5
TAP	18	0	3
TAP	18	96	3
TAP	18	192	1
TAP	18	192	4
TAP	19	0	2
HLD	19	0	5	288
TAP	19	96	2
TAP	19	192	4
TAP	19	288	4
TAP	20	0	3
TAP	20	0	6
TAP	20	96	5
TAP	20	192	4
TAP	20	288	3
HLD	21	0	2	192
TAP	21	0	5
TAP	21	96	5
TAP	21	192	3
TAP	21	288	3
TAP	21	288	4
HLD	22	0	5	96
TAP	22	96	4
TAP	22	192	3
TAP	22	192	6
TAP	22	288	2
TAP	22	288	5
TAP	23	0	1
TAP	23	0	4
TAP	23	96	2
TAP	23	96	5
TAP	23	192	3
TAP	23	192	6
TAP	23	288	2
TAP	23	288	5
TAP	24	0	3
TAP	24	48	3
TAP	24	96	4
TAP	24	192	2
TAP	24	192	5
TAP	24	288	0
STR	24	288	7
SCL	24	288	7	96	96	2
BRK	25	0	1
TAP	25	192	0
TAP	25	192	1
TAP	25	288	2
TAP	25	288	3
TAP	26	0	4
TAP	26	0	5
TAP	26	96	6
TAP	26	96	7
TAP	26	192	0
TAP	26	192	1
TAP	26	288	3
TAP	26	288	4
HLD	27	0	6	96
HLD	27	96	4	96
HLD	27	192	2	96
TAP	27	288	1
BRK	28	0	0
BRK	28	0	3
XTP	28	192	2
XTP	28	192	6
XTP	28	288	2
XTP	28	288	6
TTP	29	0	7	E	0	M1
TTP	29	96	0	C	0	M1
TTP	29	192	3	E	0	M1
XTP	29	288	1
XTP	29	288	5
TTP	30	0	1	E	0	M1
TTP	30	96	0	C	0	M1
TTP	30	192	5	E	0	M1
XTP	30	288	2
XTP	30	288	6
HLD	31	0	1	96
HLD	31	96	3	96
HLD	31	192	4	96
TAP	31	288	6
XTP	32	0	0
XTP	32	0	7
TAP	32	192	2
TAP	32	192	5
STR	32	288	0
SCR	32	288	0	96	96	5
TAP	32	288	7
BRK	33	0	6
TAP	33	192	6
TAP	33	192	7
TAP	33	288	4
TAP	33	288	5
TAP	34	0	2
TAP	34	0	3
TAP	34	96	0
TAP	34	96	1
TAP	34	192	6
TAP	34	192	7
TAP	34	288	3
TAP	34	288	4
HLD	35	0	1	96
HLD	35	96	3	96
HLD	35	192	5	96
TAP	35	288	6
BRK	36	0	4
BRK	36	0	7
TAP	36	192	4
TAP	36	192	5
STR	36	288	4
SUR	36	288	4	96	96	1
STR	36	288	5
SCR	36	288	5	96	96	0
TAP	37	192	2
TAP	37	192	3
STR	37	288	2
SCL	37	288	2	96	96	7
STR	37	288	3
SUL	37	288	3	96	96	6
TAP	38	192	4
TAP	38	192	5
STR	38	288	4
SCL	38	288	4	96	96	1
STR	38	288	5
SUL	38	288	5	96	96	0
XTP	39	192	7
XTP	39	288	0
XTP	39	288	7
BRK	40	0	6
BRK	40	96	4
BRK	40	192	2
BRK	40	288	0
TTP	41	0	0	C	1	M1
TTP	41	0	1	B	0	M1
TTP	41	0	2	B	0	M1
TTP	41	0	5	B	0	M1
TTP	41	0	6	B	0	M1
HLD	42	0	0	192
HLD	42	0	7	192
TAP	42	288	1
TAP	42	288	6
HLD	43	0	2	288
TAP	43	0	5
TAP	43	96	3
TAP	43	192	1
TAP	43	288	7
TAP	44	0	3
HLD	44	0	6	288
TAP	44	96	5
TAP	44	192	7
TAP	44	288	1
STR	45	0	2
SCR	45	0	2	96	96	5
TAP	45	192	7
TAP	45	288	6
STR	46	0	5
SCL	46	0	5	96	96	2
TAP	46	192	0
TAP	46	288	1
TAP	47	0	2
TAP	47	0	4
TAP	47	96	5
TAP	47	144	4
TAP	47	144	5
TAP	47	240	2
TAP	47	288	2
TAP	47	288	3
XTP	48	0	1
XTP	48	0	6
XTP	48	48	1
XTP	48	48	6
XTP	48	96	1
XTP	48	96	6
HLD	49	0	3	1152
TAP	49	0	4
HLD	51	0	4	768
THO	53	0	0	768	C	0	M1
TTP	54	0	5	B	0	M1
TTP	54	0	6	B	0	M1
TTP	54	0	6	E	0	M1
TTP	55	0	5	B	0	M1
TTP	55	0	6	B	0	M1
TTP	55	0	6	E	0	M1
TAP	56	0	3
TAP	56	48	3
TAP	56	96	4
TAP	56	144	4
TAP	56	192	3
STR	56	288	3
SCL	56	288	3	96	96	6
TAP	56	288	4
BRK	57	0	6
TAP	57	192	4
TAP	57	192	5
TAP	57	288	6
TAP	57	288	7
TAP	58	0	0
TAP	58	0	1
TAP	58	96	2
TAP	58	96	3
TAP	58	192	4
TAP	58	192	5
TAP	58	288	0
TAP	58	288	7
HLD	59	0	6	96
HLD	59	96	4	96
HLD	59	192	2	96
TAP	59	288	1
BRK	60	0	0
BRK	60	0	3
XTP	60	192	2
XTP	60	192	6
XTP	60	288	2
XTP	60	288	6
TTP	61	0	7	E	0	M1
TTP	61	96	0	C	0	M1
TTP	61	192	3	E	0	M1
XTP	61	288	1
XTP	61	288	5
TTP	62	0	1	E	0	M1
TTP	62	96	0	C	0	M1
TTP	62	192	5	E	0	M1
XTP	62	288	2
XTP	62	288	6
HLD	63	0	1	96
HLD	63	96	3	96
HLD	63	192	4	96
TAP	63	288	6
XTP	64	0	0
XTP	64	0	7
BRK	64	192	2
BRK	64	192	5
BRK	64	288	3
BST	64	288	4
SCR	64	288	4	96	96	1
BRK	65	0	1
TAP	65	192	2
TAP	65	192	3
TAP	65	288	0
TAP	65	288	1
TAP	66	0	6
TAP	66	0	7
TAP	66	96	4
TAP	66	96	5
TAP	66	192	2
TAP	66	192	3
TAP	66	288	0
TAP	66	288	7
HLD	67	0	6	96
HLD	67	96	4	96
HLD	67	192	2	96
TAP	67	288	1
BRK	68	0	0
BRK	68	0	3
TAP	68	192	2
TAP	68	192	6
STR	68	288	2
SUR	68	288	2	96	96	7
STR	68	288	6
SCL	68	288	6	96	96	3
TAP	69	192	1
TAP	69	192	5
STR	69	288	1
SCR	69	288	1	96	96	4
STR	69	288	5
SUL	69	288	5	96	96	0
TAP	70	192	2
TAP	70	192	6
STR	70	288	2
SCL	70	288	2	96	96	7
STR	70	288	6
SUR	70	288	6	96	96	3
XHO	71	192	0	192
XTP	71	192	4
BRK	72	0	7
XTP	72	96	4
BRK	72	96	6
XTP	72	192	3
BRK	72	192	4
HLD	72	288	1	864
BRK	72	288	3
THO	73	0	0	336	C	0	M1
HLD	74	288	6	1200
THO	75	336	0	432	C	0	M1

T_REC_TAP	186
T_REC_BRK	23
T_REC_XTP	34
T_REC_HLD	33
T_REC_XHO	1
T_REC_STR	17
T_REC_BST	1
T_REC_XST	0
T_REC_TTP	23
T_REC_THO	3
T_REC_SLD	18
T_REC_ALL	339
T_NUM_TAP	260
T_NUM_BRK	24
T_NUM_HLD	37
T_NUM_SLD	18
T_NUM_ALL	339
T_JUDGE_TAP	284
T_JUDGE_HLD	221
T_JUDGE_SLD	18
T_JUDGE_ALL	523
TTM_EACHPAIRS	100
TTM_SCR_TAP	130000
TTM_SCR_BRK	62400
TTM_SCR_HLD	37000
TTM_SCR_SLD	27000
TTM_SCR_ALL	256400
TTM_SCR_S	246400
TTM_SCR_SS	254000
TTM_RAT_ACV	10094

