VERSION	0.00.00	1.03.00
FES_MODE	0
BPM_DEF	140.000	140.000	140.000	140.000
MET_DEF	4	4
RESOLUTION	384
CLK_DEF	384
COMPATIBLE_CODE	MA2

BPM	0	0	140.000
MET	0	0	4	4

XHO	1	0	2	384
HLD	2	0	3	384
HLD	3	0	4	384
TAP	4	0	5
XHO	5	0	6	384
HLD	6	0	7	384
HLD	7	0	0	384
XTP	8	0	1
XTP	8	192	1
XTP	8	192	6
TAP	9	0	2
TAP	9	96	2
TAP	9	192	3
TAP	10	0	5
TAP	10	96	5
TAP	10	192	4
TAP	11	0	2
TAP	11	96	2
TAP	11	192	3
TAP	12	0	4
TAP	12	96	4
TAP	12	192	3
TAP	12	192	5
TAP	13	0	6
TAP	13	96	6
TAP	13	192	7
TAP	14	0	1
TAP	14	96	1
TAP	14	192	0
TAP	15	0	6
TAP	15	96	6
TAP	15	192	7
TAP	16	0	0
TAP	16	96	7
TAP	16	192	1
TAP	16	192	6
TAP	17	0	2
TAP	17	96	2
TAP	17	192	2
TAP	17	192	3
TAP	18	0	5
TAP	18	96	5
TAP	18	192	4
TAP	18	192	5
TAP	19	0	2
TAP	19	96	2
TAP	19	192	2
TAP	19	192	3
TAP	20	0	4
TAP	20	96	4
TAP	20	192	3
TAP	20	192	5
TAP	21	0	6
TAP	21	96	6
TAP	21	192	6
TAP	21	192	7
TAP	22	0	1
TAP	22	96	1
TAP	22	192	0
TAP	22	192	1
TAP	23	0	7
TAP	23	96	7
TAP	23	192	0
TAP	23	288	0
TAP	24	0	1
TAP	24	0	6
TAP	24	192	1
TAP	24	288	0
TAP	24	288	1
BRK	25	0	0
BRK	25	0	1
TAP	25	192	6
TAP	25	288	6
TAP	25	288	7
TAP	26	0	6
TAP	26	0	7
TAP	26	192	5
TAP	26	288	5
TAP	27	0	4
TAP	27	96	4
TAP	27	192	3
TAP	27	288	3
TAP	28	0	2
TAP	28	0	4
TAP	28	192	1
TAP	28	192	6
HLD	29	0	5	192
TAP	29	96	4
TAP	29	192	4
HLD	30	0	2	192
TAP	30	96	3
TAP	30	192	3
TAP	31	0	4
TAP	31	96	4
TAP	31	192	3
TAP	31	288	3
TAP	32	0	2
TAP	32	0	5
TAP	32	192	6
TAP	32	288	6
TAP	32	288	7
TAP	33	0	6
TAP	33	0	7
TAP	33	192	1
TAP	33	288	0
TAP	33	288	1
TAP	34	0	0
TAP	34	0	1
TAP	34	192	2
TAP	34	288	2
TAP	35	0	3
TAP	35	96	3
TAP	35	192	4
TAP	35	288	4
TAP	36	0	3
TAP	36	0	5
TAP	36	192	1
TAP	36	192	6
HLD	37	0	6	192
TAP	37	96	7
TAP	37	192	7
HLD	38	0	1	192
TAP	38	96	0
TAP	38	192	0
TAP	39	0	6
TAP	39	96	6
TAP	39	192	7
TAP	39	288	7
TAP	40	0	0
TAP	40	96	0
TAP	40	192	1
TAP	40	288	1
STR	41	0	2
SCL	41	0	2	96	144	7
STR	42	0	6
SCL	42	0	6	96	144	3
STR	43	0	2
SCR	43	0	2	96	144	5
STR	44	0	6
SCL	44	0	6	96	144	3
STR	45	0	1
SI_	45	0	1	96	144	5
STR	46	0	7
SI_	46	0	7	96	144	4
XTP	47	0	3
XTP	47	192	3
XTP	47	192	4
BRK	48	0	2
BRK	48	0	5
TTP	49	0	2	B	0	L1
TTP	50	0	1	B	0	L1
TTP	51	0	0	B	0	L1
TTP	52	0	7	B	0	L1
TTP	53	0	6	B	0	L1
TTP	54	0	5	B	0	L1
THO	55	0	0	192	C	0	L1
XTP	56	0	0
XTP	56	0	7
XTP	56	96	0
XTP	56	96	7
TAP	56	192	6
TAP	56	288	6
BRK	57	0	6
BRK	57	0	7
TAP	57	192	1
TAP	57	288	0
TAP	57	288	1
TAP	58	0	0
TAP	58	0	1
TAP	58	192	2
TAP	58	288	2
TAP	59	0	3
TAP	59	96	3
TAP	59	192	4
TAP	59	288	4
TAP	60	0	3
TAP	60	0	5
TAP	60	192	1
TAP	60	192	6
TAP	61	0	5
TAP	61	96	5
TAP	61	192	4
TAP	61	192	5
TAP	62	0	2
TAP	62	96	2
TAP	62	192	2
TAP	62	192	3
TAP	63	0	4
TAP	63	96	4
TAP	63	192	3
TAP	63	288	3
XTP	64	0	2
XTP	64	0	4
TAP	64	192	1
TAP	64	288	0
TAP	64	288	1
BRK	65	0	0
BRK	65	0	1
TAP	65	192	6
TAP	65	288	6
TAP	65	288	7
TAP	66	0	6
TAP	66	0	7
TAP	66	192	5
TAP	66	288	5
TAP	67	0	4
TAP	67	96	4
TAP	67	192	3
TAP	67	288	3
TAP	68	0	2
TAP	68	0	4
TAP	68	192	1
TAP	68	192	6
TAP	69	0	1
TAP	69	96	1
TAP	69	192	0
TAP	69	192	1
TAP	70	0	6
TAP	70	96	6
TAP	70	192	6
TAP	70	192	7
TAP	71	0	1
TAP	71	96	1
TAP	71	192	0
TAP	71	288	0
TAP	72	0	7
TAP	72	96	7
TAP	72	192	6
TAP	72	288	6
STR	73	0	5
SCR	73	0	5	96	432	2
STR	75	0	2
SCL	75	0	2	96	432	5
TTP	77	0	3	B	0	L1
TTP	77	0	4	B	0	L1
TTP	77	336	2	B	0	L1
TTP	77	336	5	B	0	L1

T_REC_TAP	180
T_REC_BRK	8
T_REC_XTP	12
T_REC_HLD	8
T_REC_XHO	2
T_REC_STR	8
T_REC_BST	0
T_REC_XST	0
T_REC_TTP	10
T_REC_THO	1
T_REC_SLD	8
T_REC_ALL	237
T_NUM_TAP	210
T_NUM_BRK	8
T_NUM_HLD	11
T_NUM_SLD	8
T_NUM_ALL	237
T_JUDGE_TAP	218
T_JUDGE_HLD	68
T_JUDGE_SLD	8
T_JUDGE_ALL	294
TTM_EACHPAIRS	43
TTM_SCR_TAP	105000
TTM_SCR_BRK	20800
TTM_SCR_HLD	11000
TTM_SCR_SLD	12000
TTM_SCR_ALL	148800
TTM_SCR_S	143600
TTM_SCR_SS	148000
TTM_RAT_ACV	10054

