VERSION	0.00.00	1.03.00
FES_MODE	0
BPM_DEF	140.000	140.000	140.000	140.000
MET_DEF	4	4
RESOLUTION	384
CLK_DEF	384
COMPATIBLE_CODE	MA2

BPM	0	0	140.000
MET	0	0	4	4

TAP	9	0	0
TAP	9	192	0
TAP	10	0	0
TAP	11	0	1
TAP	11	192	1
TAP	12	0	1
TAP	13	0	2
TAP	13	192	2
TAP	14	0	2
TAP	15	0	3
TAP	15	192	3
TAP	16	0	3
TAP	17	0	4
TAP	17	192	4
TAP	18	0	4
TAP	19	0	5
TAP	19	192	5
TAP	20	0	5
TAP	21	0	6
TAP	21	192	6
TAP	22	0	6
TAP	23	0	7
TAP	23	192	7
XTP	24	0	0
XTP	24	0	7
TAP	25	0	7
TAP	25	96	7
TAP	25	192	7
TAP	26	0	6
TAP	26	96	6
TAP	26	192	6
TAP	27	0	5
TAP	27	96	5
TAP	27	192	5
HLD	28	0	3	192
HLD	28	0	4	192
TAP	29	0	3
TAP	29	96	3
TAP	29	192	3
TAP	30	0	4
TAP	30	96	4
TAP	30	192	4
TAP	31	0	2
TAP	31	0	3
TAP	31	192	4
TAP	31	192	5
TAP	32	0	3
TAP	32	96	4
BRK	32	192	3
TAP	33	0	3
TAP	33	96	3
TAP	33	192	3
TAP	34	0	2
TAP	34	96	2
TAP	34	192	2
TAP	35	0	1
TAP	35	96	1
TAP	35	192	1
HLD	36	0	0	192
HLD	36	0	7	192
TAP	37	0	7
TAP	37	96	7
TAP	37	192	7
TAP	38	0	0
TAP	38	96	0
TAP	38	192	0
TAP	39	0	7
TAP	39	96	7
TAP	39	192	6
TAP	39	192	7
TAP	40	0	0
TAP	40	96	0
TAP	40	192	0
TAP	40	192	1
STR	41	0	7
SI_	41	0	7	96	288	4
STR	43	0	3
SI_	43	0	3	96	288	0
STR	45	0	0
SI_	45	0	0	96	288	3
STR	47	0	4
SI_	47	0	4	96	288	7
TTP	49	0	6	B	0	L1
TTP	50	0	5	B	0	L1
TTP	51	0	4	B	0	L1
TTP	52	0	3	B	0	L1
TTP	53	0	2	B	0	L1
TTP	54	0	1	B	0	L1
THO	55	0	0	384	C	1	L1
TAP	57	0	0
TAP	57	96	0
TAP	57	192	0
TAP	58	0	1
TAP	58	96	1
TAP	58	192	1
TAP	59	0	2
TAP	59	96	2
TAP	59	192	2
TAP	60	0	3
TAP	60	0	4
XTP	60	192	3
XTP	60	192	4
TAP	61	0	4
TAP	61	96	4
TAP	61	192	3
TAP	61	192	5
TAP	62	0	3
TAP	62	96	3
TAP	62	192	2
TAP	62	192	4
TAP	63	0	3
TAP	63	0	4
TAP	63	192	3
TAP	63	192	4
BRK	64	0	2
BRK	64	0	5
TAP	65	0	4
TAP	65	96	4
TAP	65	192	4
TAP	66	0	5
TAP	66	96	5
TAP	66	192	5
TAP	67	0	6
TAP	67	96	6
TAP	67	192	6
TAP	68	0	0
TAP	68	0	7
XTP	68	192	0
XTP	68	192	7
TAP	69	0	0
TAP	69	96	0
TAP	69	192	1
TAP	69	192	7
TAP	70	0	7
TAP	70	96	7
TAP	70	192	0
TAP	70	192	6
TAP	71	0	0
TAP	71	0	7
TAP	71	192	0
TAP	71	192	7
TAP	72	0	1
TAP	72	0	6
TAP	72	192	1
TAP	72	192	6
STR	73	0	0
SI_	73	0	0	96	288	4
STR	75	0	7
SI_	75	0	7	96	288	3
STR	77	0	0
SI_	77	0	0	96	288	3

T_REC_TAP	117
T_REC_BRK	3
T_REC_XTP	6
T_REC_HLD	4
T_REC_XHO	0
T_REC_STR	7
T_REC_BST	0
T_REC_XST	0
T_REC_TTP	6
T_REC_THO	1
T_REC_SLD	7
T_REC_ALL	151
T_NUM_TAP	136
T_NUM_BRK	3
T_NUM_HLD	5
T_NUM_SLD	7
T_NUM_ALL	151
T_JUDGE_TAP	139
T_JUDGE_HLD	24
T_JUDGE_SLD	7
T_JUDGE_ALL	170
TTM_EACHPAIRS	22
TTM_SCR_TAP	68000
TTM_SCR_BRK	7800
TTM_SCR_HLD	5000
TTM_SCR_SLD	10500
TTM_SCR_ALL	91300
TTM_SCR_S	88300
TTM_SCR_SS	91000
TTM_RAT_ACV	10032

