VERSION	0.00.00	1.03.00
FES_MODE	0
BPM_DEF	 93.000	 93.000	 93.000	 93.000
MET_DEF	4	4
RESOLUTION	384
CLK_DEF	384
COMPATIBLE_CODE	MA2

BPM	0	0	 93.000
MET	0	0	4	4

STR	2	0	2
SCR	2	0	2	96	48	5
TAP	2	0	6
TAP	2	48	1
TAP	2	48	5
TAP	2	96	2
TAP	2	96	6
STR	2	192	7
SUL	2	192	7	96	48	0
TAP	2	224	7
TAP	2	240	0
TAP	3	0	1
STR	3	0	5
SCL	3	0	5	96	48	2
TAP	3	48	2
TAP	3	48	6
TAP	3	96	1
TAP	3	96	5
STR	3	192	0
SUR	3	192	0	96	48	7
TAP	3	224	0
TAP	3	240	7
STR	4	0	2
SCR	4	0	2	96	48	5
TAP	4	0	6
TAP	4	48	1
TAP	4	48	5
TAP	4	96	2
TAP	4	96	6
STR	4	192	7
SUL	4	192	7	96	48	0
TAP	4	224	7
TAP	4	240	0
STR	5	0	1
SI_	5	0	1	96	48	5
STR	5	0	5
SI_	5	0	5	96	24	3
TAP	5	48	2
TAP	5	48	6
TAP	5	96	1
TAP	5	96	5
TAP	5	224	1
TAP	5	224	6
TAP	5	272	3
TAP	5	288	4
TAP	5	320	4
TAP	5	336	3
TAP	6	0	2
TAP	6	0	5
TAP	6	80	0
STR	6	96	7
SI_	6	96	7	96	48	4
TAP	6	144	2
TAP	6	192	3
TAP	6	240	0
TAP	6	272	0
STR	6	288	7
SI_	6	288	7	96	48	4
TAP	6	320	7
TAP	6	336	1
TAP	7	0	2
TAP	7	48	2
TAP	7	96	0
STR	7	96	7
SI_	7	96	7	96	48	4
HLD	7	144	3	48
TAP	7	272	0
STR	7	288	7
SI_	7	288	7	96	48	4
TAP	7	336	3
TAP	8	0	2
TAP	8	80	0
STR	8	96	7
SI_	8	96	7	96	48	4
TAP	8	144	2
XTP	8	192	0
XTP	8	240	3
XTP	8	288	0
STR	8	288	7
SI_	8	288	7	96	48	4
XTP	8	336	4
TAP	9	0	2
TAP	9	48	3
TAP	9	96	4
STR	9	96	7
SI_	9	96	7	96	48	4
TAP	9	144	5
TAP	9	192	4
TAP	9	240	3
TAP	9	288	2
STR	9	288	7
SI_	9	288	7	96	48	4
TAP	9	336	1
TAP	10	80	0
STR	10	96	7
SI_	10	96	7	96	48	4
TAP	10	128	7
TAP	10	144	1
TAP	10	192	3
TAP	10	240	0
TAP	10	272	0
STR	10	288	7
SI_	10	288	7	96	48	4
TAP	10	320	7
TAP	10	336	1
TAP	11	0	2
TAP	11	48	3
TAP	11	96	4
STR	11	96	7
SI_	11	96	7	96	48	4
TAP	11	144	4
TTP	11	224	2	B	0	M1
TTP	11	240	3	E	0	M1
TAP	11	272	0
STR	11	288	7
SI_	11	288	7	96	48	4
TAP	11	320	7
TAP	11	336	1
TAP	12	0	3
TAP	12	80	0
STR	12	96	7
SI_	12	96	7	96	48	4
TAP	12	128	7
TAP	12	144	1
TAP	12	192	3
TAP	12	240	0
TAP	12	272	0
STR	12	288	7
SI_	12	288	7	96	48	4
TAP	12	320	7
TAP	12	336	1
TAP	13	0	4
TAP	13	48	0
TAP	13	80	0
STR	13	96	7
SI_	13	96	7	96	48	4
TAP	13	144	3
TAP	13	144	5
XTP	13	224	2
TAP	13	272	3
TAP	13	288	4
TAP	13	320	4
TAP	13	336	3
XTP	14	0	2
XTP	14	0	4
TAP	14	80	7
STR	14	96	0
SI_	14	96	0	96	48	3
TAP	14	128	0
TAP	14	144	6
TAP	14	192	4
TAP	14	240	7
TAP	14	272	7
STR	14	288	0
SI_	14	288	0	96	48	3
TAP	14	320	0
TAP	14	336	6
TAP	15	0	5
TAP	15	48	4
STR	15	96	0
SI_	15	96	0	96	48	3
TAP	15	96	3
HLD	15	144	2	48
STR	15	288	0
SI_	15	288	0	96	48	3
TAP	15	336	3
TAP	16	0	5
TAP	16	80	7
STR	16	96	0
SI_	16	96	0	96	48	3
TAP	16	144	5
TAP	16	192	4
TAP	16	240	6
STR	16	288	0
SI_	16	288	0	96	48	3
TAP	16	336	4
TAP	17	0	5
TAP	17	48	4
STR	17	96	0
SI_	17	96	0	96	48	3
TAP	17	96	3
TAP	17	144	4
TAP	17	192	5
XTP	17	224	5
XTP	17	272	7
STR	17	288	0
SI_	17	288	0	96	48	3
TTP	17	320	5	B	0	M1
TTP	17	336	5	E	0	M1
TAP	18	0	7
TAP	18	80	7
STR	18	96	0
SI_	18	96	0	96	48	3
TAP	18	128	0
TAP	18	144	6
TAP	18	192	5
TAP	18	240	4
STR	18	288	0
SI_	18	288	0	96	48	3
TAP	18	288	3
TAP	18	336	2
TAP	18	336	4
TAP	19	0	5
TAP	19	80	7
STR	19	96	0
SI_	19	96	0	96	48	3
TAP	19	128	0
TAP	19	144	6
TAP	19	192	5
TAP	19	240	4
STR	19	288	0
SI_	19	288	0	96	48	3
TAP	19	288	3
TAP	19	336	2
TAP	19	336	4
TAP	20	0	7
STR	20	96	0
SI_	20	96	0	96	48	3
TAP	20	128	0
TAP	20	144	7
TAP	20	192	5
TAP	20	240	6
STR	20	288	0
SI_	20	288	0	96	48	3
TAP	20	288	4
TAP	20	336	3
HLD	21	0	4	96
TAP	21	96	0
TAP	21	192	2
TAP	21	192	6
TAP	21	240	1
TAP	21	240	5
BRK	21	288	0
BRK	21	288	4
STR	22	0	1
SCR	22	0	1	96	48	4
TAP	22	0	5
TAP	22	48	0
STR	22	48	4
SXR	22	48	4	96	48	2
TAP	22	96	7
TAP	22	144	7
STR	22	192	6
SCL	22	192	6	96	48	3
STR	22	240	3
SXL	22	240	3	96	48	5
TAP	22	240	7
TAP	22	288	0
TAP	22	336	0
STR	23	0	1
SCR	23	0	1	96	48	4
TAP	23	48	0
STR	23	48	4
SXR	23	48	4	96	48	2
TAP	23	96	7
TAP	23	144	7
STR	23	192	6
SI_	23	192	6	96	32	4
STR	23	240	6
SI_	23	240	6	96	32	0
STR	23	288	6
SF_	23	288	6	96	48	2
HLD	24	80	0	48
TAP	24	128	7
TAP	24	176	5
TAP	24	192	4
TAP	24	224	1
TAP	24	240	0
TAP	24	288	2
TAP	24	288	4
TAP	24	336	3
TAP	24	336	6
TAP	24	368	2
TAP	25	0	1
TAP	25	0	5
TAP	25	48	7
TAP	25	80	7
TAP	25	128	2
TAP	25	128	6
TAP	25	176	3
TAP	25	192	4
TAP	25	224	0
TAP	25	224	7
STR	25	240	0
SV_	25	240	0	96	48	5
STR	25	240	7
SV_	25	240	7	96	48	2
STR	25	288	2
SCL	25	288	2	96	32	0
STR	25	288	5
SCR	25	288	5	96	32	7
TAP	26	80	4
TAP	26	96	3
TTP	26	128	2	B	0	M1
TTP	26	144	3	E	0	M1
TTP	26	176	5	B	0	M1
TTP	26	192	5	E	0	M1
TAP	26	224	0
TAP	26	224	7
STR	26	240	0
SV_	26	240	0	96	48	5
STR	26	240	7
SV_	26	240	7	96	48	2
STR	26	288	2
SCL	26	288	2	96	32	0
STR	26	288	5
SCR	26	288	5	96	32	7
TAP	27	80	3
TAP	27	96	4
TTP	27	128	5	B	0	M1
TTP	27	144	5	E	0	M1
TTP	27	176	2	B	0	M1
TTP	27	192	3	E	0	M1
TAP	27	224	0
TAP	27	224	7
STR	27	240	0
SV_	27	240	0	96	48	5
STR	27	240	7
SV_	27	240	7	96	48	2
STR	27	288	2
SCL	27	288	2	96	32	0
STR	27	288	5
SCR	27	288	5	96	32	7
TAP	28	80	4
TAP	28	96	3
TTP	28	128	2	B	0	M1
TTP	28	144	3	E	0	M1
TTP	28	176	5	B	0	M1
TTP	28	192	5	E	0	M1
TTP	28	224	0	E	0	M1
TTP	28	240	0	B	0	M1
TTP	28	240	7	B	0	M1
XTP	28	288	2
XTP	28	288	5
TAP	29	0	0
TAP	29	0	7
TAP	29	32	0
TAP	29	32	7
TAP	29	80	1
TAP	29	80	3
TAP	29	128	3
TAP	29	128	4
TAP	29	176	6
TAP	29	192	4
TAP	29	224	7
TAP	29	240	0
TAP	29	288	1
TAP	29	288	4
TAP	29	336	3
TAP	29	336	6
TAP	30	0	2
TAP	30	0	5
TAP	30	32	2
TAP	30	48	3
TTP	30	80	7	E	0	M1
TTP	30	96	6	B	0	M1
TAP	30	128	3
TAP	30	144	2
TAP	30	144	4
TAP	30	176	5
TAP	30	192	4
TAP	30	224	1
TAP	30	240	3
TAP	30	272	0
TAP	30	288	7
TAP	30	368	3
TAP	31	0	4
TAP	31	32	4
TAP	31	48	2
TTP	31	80	1	E	0	M1
TTP	31	96	1	B	0	M1
TAP	31	128	4
TAP	31	144	3
TAP	31	144	5
TAP	31	176	2
TAP	31	192	3
TAP	31	224	6
TAP	31	240	4
TAP	31	272	7
TAP	31	288	0
TAP	31	336	1
TAP	31	336	5
TAP	32	0	2
TAP	32	32	2
TAP	32	48	3
TTP	32	80	7	E	0	M1
TTP	32	96	6	B	0	M1
TAP	32	128	3
TAP	32	144	2
TAP	32	144	4
TAP	32	176	5
TAP	32	192	4
TAP	32	224	1
TAP	32	240	3
TAP	32	272	0
TAP	32	288	7
TAP	32	368	3
TAP	33	0	4
TAP	33	32	4
TAP	33	48	2
TTP	33	80	1	E	0	M1
TTP	33	96	1	B	0	M1
TAP	33	128	4
TAP	33	144	3
TAP	33	144	5
TAP	33	176	2
TAP	33	192	3
TAP	33	224	6
TAP	33	240	4
TAP	33	272	7
BRK	33	288	0
HLD	34	0	5	768
TTP	34	128	0	E	0	M1
TTP	34	144	7	B	0	M1
TTP	34	192	0	C	0	M1
TTP	34	240	4	E	0	M1
TTP	34	320	1	B	0	M1
TTP	34	336	2	B	0	M1
TTP	35	0	0	C	0	M1
TTP	35	48	4	E	0	M1
TTP	35	144	0	E	0	M1
TTP	35	192	7	E	0	M1
TTP	35	240	0	C	0	M1
TTP	35	288	3	E	0	M1
TTP	35	336	4	E	0	M1
HLD	36	0	1	768
TTP	36	128	0	E	0	M1
TTP	36	144	0	B	0	M1
TTP	36	192	0	C	0	M1
TTP	36	240	4	E	0	M1
TTP	36	320	5	B	0	M1
TTP	36	336	5	E	0	M1
TTP	37	0	0	C	0	M1
TTP	37	48	4	E	0	M1
TTP	37	144	0	E	0	M1
TTP	37	192	7	E	0	M1
TTP	37	240	0	C	0	M1
TTP	37	288	3	E	0	M1
TTP	37	336	4	E	0	M1
HLD	38	0	6	768
TTP	38	128	0	E	0	M1
TTP	38	144	7	B	0	M1
TTP	38	192	0	C	0	M1
TTP	38	240	4	E	0	M1
TTP	38	320	2	B	0	M1
TTP	38	336	3	E	0	M1
TTP	39	0	0	C	0	M1
TTP	39	48	4	E	0	M1
TTP	39	144	6	E	0	M1
TTP	39	192	5	E	0	M1
TTP	39	240	0	C	0	M1
TTP	39	288	1	E	0	M1
TTP	39	336	2	E	0	M1
HLD	40	0	0	480
TTP	40	128	7	E	0	M1
TTP	40	144	6	B	0	M1
TTP	40	192	0	C	0	M1
TTP	40	240	4	E	0	M1
TTP	40	320	5	B	0	M1
TTP	40	336	5	E	0	M1
TTP	41	0	3	E	0	M1
TAP	41	96	4
TAP	41	144	4
XTP	41	224	7
TAP	41	272	2
TAP	41	288	3
TAP	41	320	5
BRK	41	336	4
TAP	42	0	2
STR	42	0	6
SCL	42	0	6	96	48	3
STR	42	48	3
SXL	42	48	3	96	48	5
TAP	42	48	7
TAP	42	96	0
TAP	42	144	0
STR	42	192	1
SCR	42	192	1	96	48	4
TAP	42	240	0
STR	42	240	4
SXR	42	240	4	96	48	2
TAP	42	288	7
TAP	42	336	7
STR	43	0	6
SCL	43	0	6	96	48	3
STR	43	48	3
SXL	43	48	3	96	48	5
TAP	43	48	7
TAP	43	96	0
TAP	43	144	0
STR	43	192	1
SI_	43	192	1	96	32	3
STR	43	240	1
SI_	43	240	1	96	32	7
STR	43	288	1
SF_	43	288	1	96	48	5
HLD	44	80	7	48
TAP	44	128	0
TAP	44	176	2
TAP	44	192	3
TAP	44	224	6
TAP	44	240	7
TAP	44	288	3
TAP	44	288	5
TAP	44	336	1
TAP	44	336	4
TAP	44	368	5
TAP	45	0	2
TAP	45	0	6
TAP	45	48	0
TAP	45	80	0
TAP	45	128	1
TAP	45	128	5
TAP	45	176	4
TAP	45	192	3
TAP	45	224	0
TAP	45	224	1
STR	45	240	0
SV_	45	240	0	96	48	3
STR	45	240	1
SV_	45	240	1	96	48	6
STR	45	288	3
SCL	45	288	3	96	32	1
STR	45	288	6
SCR	45	288	6	96	32	0
TAP	46	80	5
TAP	46	96	4
TTP	46	128	0	B	0	M1
TTP	46	144	1	E	0	M1
TTP	46	176	2	B	0	M1
TTP	46	192	3	E	0	M1
TAP	46	224	6
TAP	46	224	7
STR	46	240	6
SV_	46	240	6	96	48	1
STR	46	240	7
SV_	46	240	7	96	48	4
STR	46	288	1
SCL	46	288	1	96	32	7
STR	46	288	4
SCR	46	288	4	96	32	6
TAP	47	80	2
TAP	47	96	3
TTP	47	128	7	B	0	M1
TTP	47	144	7	E	0	M1
TTP	47	176	5	B	0	M1
TTP	47	192	5	E	0	M1
TAP	47	224	0
TAP	47	224	1
STR	47	240	0
SV_	47	240	0	96	48	3
STR	47	240	1
SV_	47	240	1	96	48	6
STR	47	288	3
SCL	47	288	3	96	32	1
STR	47	288	6
SCR	47	288	6	96	32	0
TAP	48	80	5
TAP	48	96	4
TTP	48	128	7	E	0	M1
TTP	48	144	6	B	0	M1
TTP	48	176	1	E	0	M1
TTP	48	192	1	B	0	M1
TTP	48	224	0	E	0	M1
TTP	48	240	0	B	0	M1
TTP	48	240	7	B	0	M1
XTP	48	288	2
XTP	48	288	5
TAP	49	0	0
TAP	49	0	7
TAP	49	32	0
TAP	49	32	7
TAP	49	80	4
TAP	49	80	6
TAP	49	128	3
TAP	49	128	4
TAP	49	176	1
TAP	49	192	3
TAP	49	240	2
TAP	49	240	6
TAP	49	288	1
TAP	49	288	4
TAP	49	336	3
TAP	49	336	7
XTP	50	0	2
XTP	50	0	5
TAP	50	32	3
TAP	50	48	4
TTP	50	80	1	E	0	M1
TTP	50	96	1	B	0	M1
TAP	50	128	4
TAP	50	144	3
TAP	50	144	5
TAP	50	176	2
TAP	50	192	3
TAP	50	224	6
TAP	50	240	4
TAP	50	272	7
TAP	50	288	7
TAP	50	304	0
TAP	50	320	5
TAP	50	336	3
TAP	50	352	4
TAP	50	368	3
TAP	51	0	4
TAP	51	32	4
TAP	51	48	2
TTP	51	80	7	E	0	M1
TTP	51	96	6	B	0	M1
TAP	51	128	3
TAP	51	144	2
TAP	51	144	4
TAP	51	176	5
TAP	51	192	4
TAP	51	224	1
TAP	51	240	3
TAP	51	272	0
STR	51	288	0
SI_	51	288	0	96	288	4
TAP	51	304	7
TAP	51	320	2
TAP	51	336	5
TAP	51	352	3
TAP	51	368	6
BRK	52	0	0

T_REC_TAP	343
T_REC_BRK	5
T_REC_XTP	16
T_REC_HLD	9
T_REC_XHO	0
T_REC_STR	80
T_REC_BST	0
T_REC_XST	0
T_REC_TTP	92
T_REC_THO	0
T_REC_SLD	80
T_REC_ALL	625
T_NUM_TAP	531
T_NUM_BRK	5
T_NUM_HLD	9
T_NUM_SLD	80
T_NUM_ALL	625
T_JUDGE_TAP	536
T_JUDGE_HLD	128
T_JUDGE_SLD	80
T_JUDGE_ALL	744
TTM_EACHPAIRS	89
TTM_SCR_TAP	265500
TTM_SCR_BRK	13000
TTM_SCR_HLD	9000
TTM_SCR_SLD	120000
TTM_SCR_ALL	407500
TTM_SCR_S	394800
TTM_SCR_SS	407000
TTM_RAT_ACV	10012

