VERSION	0.00.00	1.03.00
FES_MODE	0
BPM_DEF	 93.000	 93.000	 93.000	 93.000
MET_DEF	4	4
RESOLUTION	384
CLK_DEF	384
COMPATIBLE_CODE	MA2

BPM	0	0	 93.000
MET	0	0	4	4

HLD	2	0	2	96
HLD	2	96	4	96
TAP	2	192	3
TAP	2	240	4
TAP	2	288	5
HLD	3	0	5	96
HLD	3	96	3	96
TAP	3	192	4
TAP	3	240	2
TAP	3	288	1
TAP	3	288	3
HLD	4	0	5	96
HLD	4	96	3	96
TAP	4	192	4
TAP	4	240	3
TAP	4	288	2
HLD	5	0	2	96
HLD	5	96	4	96
TAP	5	192	3
TAP	5	240	5
BRK	5	288	4
BRK	5	288	6
HLD	6	0	1	96
HLD	6	96	2	96
TAP	6	192	3
TAP	6	240	3
TAP	6	288	3
TAP	6	288	4
TTP	7	0	4	B	0	M1
TTP	7	0	5	B	0	M1
TTP	7	96	2	B	0	M1
TTP	7	96	3	B	0	M1
TTP	7	192	6	B	0	M1
TTP	7	192	7	B	0	M1
TTP	7	288	0	B	0	M1
TTP	7	288	1	B	0	M1
HLD	8	0	6	96
HLD	8	96	5	96
TAP	8	192	4
TAP	8	240	4
TAP	8	288	3
TAP	8	288	4
TTP	9	0	2	B	0	M1
TTP	9	0	3	B	0	M1
TTP	9	96	4	B	0	M1
TTP	9	96	5	B	0	M1
TTP	9	192	0	B	0	M1
TTP	9	192	1	B	0	M1
TTP	9	288	6	B	0	M1
TTP	9	288	7	B	0	M1
TAP	10	0	2
HLD	10	0	3	192
TAP	10	96	4
TAP	10	144	4
HLD	10	192	2	192
TAP	10	288	1
TAP	10	336	1
HLD	11	0	4	192
TAP	11	96	5
TAP	11	144	5
HLD	11	192	3	96
TAP	11	288	2
TAP	11	336	3
TAP	12	0	4
TAP	12	96	4
TAP	12	96	5
TAP	12	192	1
TAP	12	192	2
TAP	12	288	6
TAP	12	288	7
TTP	13	0	0	B	0	M1
THO	13	0	0	192	C	1	M1
TTP	13	0	1	B	0	M1
TTP	13	0	4	B	0	M1
TTP	13	0	5	B	0	M1
TTP	13	192	0	E	0	M1
TTP	13	288	1	E	0	M1
TTP	13	288	7	E	0	M1
STR	14	0	0
SLR	14	0	0	96	192	6
STR	14	0	1
SLL	14	0	1	96	192	3
TAP	15	0	4
TAP	15	0	6
TAP	15	48	3
TAP	15	96	2
TAP	15	96	4
TAP	15	144	5
TAP	15	192	4
TAP	15	192	6
TAP	15	288	3
TAP	15	288	7
TAP	15	336	6
STR	16	0	4
SLR	16	0	4	96	192	2
STR	16	0	5
SLL	16	0	5	96	192	7
THO	17	0	0	96	C	0	M1
TTP	17	96	0	E	0	M1
TTP	17	192	1	E	0	M1
TTP	17	192	7	E	0	M1
TAP	17	288	1
TAP	17	288	6
TAP	18	0	2
HLD	18	0	3	96
HLD	18	96	4	96
TAP	18	192	5
TAP	18	240	5
TAP	18	288	4
TAP	18	288	6
TAP	18	336	7
HLD	19	0	4	96
TAP	19	0	6
HLD	19	96	3	96
TAP	19	192	2
TAP	19	240	2
TAP	19	288	1
TAP	19	288	3
TAP	19	336	0
HLD	20	0	1	96
HLD	20	0	3	96
TAP	20	144	4
HLD	20	192	4	96
HLD	20	192	5	96
TTP	21	0	1	B	0	M1
TTP	21	0	2	B	0	M1
TTP	21	0	2	E	0	M1
TTP	21	96	5	B	0	M1
TTP	21	96	6	B	0	M1
TTP	21	96	6	E	0	M1
TTP	21	192	0	C	1	M1
TTP	21	192	3	B	0	M1
TTP	21	192	4	B	0	M1
HLD	22	0	3	96
TAP	22	0	4
TAP	22	48	6
HLD	22	96	4	96
TAP	22	144	1
HLD	22	192	3	96
TAP	22	240	7
HLD	22	288	4	96
TAP	22	336	0
HLD	23	0	3	96
TAP	23	48	0
HLD	23	96	4	96
TAP	23	144	7
TAP	23	192	3
TAP	23	240	3
TAP	23	240	4
TAP	23	288	2
TAP	23	288	5
TAP	23	336	2
TAP	23	336	5
TAP	24	0	1
TAP	24	0	6
TAP	24	80	2
TAP	24	80	4
TAP	24	128	3
TAP	24	128	5
TAP	24	176	2
TAP	24	192	3
TAP	24	224	5
TAP	24	240	4
TAP	24	288	0
TAP	24	288	7
TAP	24	336	0
TAP	24	336	7
TAP	25	0	1
TAP	25	0	6
TAP	25	48	5
TAP	25	80	3
TAP	25	80	5
TAP	25	128	2
TAP	25	128	4
TAP	25	176	5
TAP	25	192	4
TAP	25	224	2
TAP	25	240	3
TAP	25	288	1
TAP	25	288	4
XTP	25	336	0
XTP	26	0	0
TAP	26	80	3
TAP	26	96	4
TAP	26	128	4
TAP	26	144	3
TAP	26	176	3
TAP	26	192	5
TAP	26	224	5
TAP	26	240	4
TAP	26	288	3
TAP	26	288	6
XTP	26	336	7
XTP	27	0	7
TAP	27	80	4
TAP	27	96	3
TAP	27	128	3
TAP	27	144	4
TAP	27	176	4
TAP	27	192	2
TAP	27	224	2
TAP	27	240	3
TAP	27	288	1
TAP	27	288	4
XTP	27	336	0
XTP	28	0	0
TAP	28	80	3
TAP	28	96	4
TAP	28	128	4
TAP	28	144	3
TAP	28	176	3
TAP	28	192	5
TAP	28	224	5
TAP	28	240	4
TAP	28	288	3
TAP	28	288	6
TAP	29	0	3
TAP	29	0	5
TAP	29	32	5
TAP	29	48	4
TAP	29	80	2
TAP	29	96	3
TAP	29	128	5
TAP	29	144	4
TAP	29	176	2
TAP	29	192	3
XTP	29	240	5
XTP	29	288	3
XTP	29	336	7
TTP	30	0	0	C	0	M1
XST	30	0	1
SCL	30	0	1	96	480	2
TTP	30	192	0	C	0	M1
THO	31	0	0	192	C	0	M1
TAP	31	288	0
TAP	31	288	7
TTP	32	0	0	C	0	M1
STR	32	0	6
SCR	32	0	6	96	480	5
TTP	32	192	0	C	0	M1
THO	33	0	0	192	C	0	M1
TAP	33	288	0
TAP	33	288	7
HLD	34	0	3	768
TTP	34	96	4	B	0	M1
TTP	34	288	3	B	0	M1
TTP	35	96	2	B	0	M1
TTP	35	288	3	B	0	M1
HLD	36	0	4	768
TTP	36	96	3	B	0	M1
TTP	36	288	4	B	0	M1
TTP	37	96	5	B	0	M1
TTP	37	288	4	B	0	M1
HLD	38	0	3	384
TTP	38	96	5	B	0	M1
TAP	38	192	4
TTP	38	288	6	B	0	M1
TTP	38	288	7	B	0	M1
HLD	39	0	4	384
TTP	39	96	2	B	0	M1
TAP	39	192	3
TTP	39	288	0	B	0	M1
TTP	39	288	1	B	0	M1
HLD	40	0	3	384
TTP	40	96	5	B	0	M1
TAP	40	192	4
TTP	40	288	6	B	0	M1
TTP	40	288	7	B	0	M1
THO	41	0	0	192	C	1	M1
TTP	41	192	0	E	0	M1
TTP	41	288	1	E	0	M1
TTP	41	288	7	E	0	M1
HLD	42	0	3	96
TAP	42	0	4
TAP	42	48	7
HLD	42	96	4	96
TAP	42	144	0
HLD	42	192	3	96
TAP	42	240	0
HLD	42	288	4	96
TAP	42	336	7
HLD	43	0	3	96
TAP	43	48	1
HLD	43	96	4	96
TAP	43	144	6
TAP	43	192	3
TAP	43	240	2
TAP	43	240	5
TAP	43	288	1
TAP	43	288	6
TAP	43	336	0
TAP	43	336	7
XTP	44	0	1
XTP	44	0	6
TAP	44	80	3
TAP	44	80	5
TAP	44	128	2
TAP	44	128	4
TAP	44	176	5
TAP	44	192	4
TAP	44	224	2
TAP	44	240	3
TAP	44	288	0
TAP	44	288	7
TAP	44	336	0
TAP	44	336	7
TAP	45	0	1
TAP	45	0	6
TAP	45	48	2
TAP	45	80	2
TAP	45	80	4
TAP	45	128	3
TAP	45	128	5
TAP	45	176	2
TAP	45	192	3
TAP	45	224	5
TAP	45	240	4
TAP	45	288	3
TAP	45	288	6
BRK	45	336	7
BRK	46	0	7
TAP	46	80	4
TAP	46	96	3
TAP	46	128	3
TAP	46	144	5
TAP	46	176	5
TAP	46	192	2
TAP	46	224	2
TAP	46	240	3
TAP	46	288	1
TAP	46	288	4
BRK	46	336	0
BRK	47	0	0
TAP	47	80	3
TAP	47	96	4
TAP	47	128	4
TAP	47	144	2
TAP	47	176	2
TAP	47	192	5
TAP	47	224	5
TAP	47	240	4
TAP	47	288	3
TAP	47	288	6
BRK	47	336	7
BRK	48	0	7
TAP	48	80	4
TAP	48	96	3
TAP	48	128	3
TAP	48	144	5
TAP	48	176	5
TAP	48	192	2
TAP	48	224	2
TAP	48	240	3
TAP	48	288	1
TAP	48	288	4
TAP	49	0	0
TAP	49	0	6
TAP	49	32	6
TAP	49	48	7
TAP	49	80	1
TAP	49	96	0
TAP	49	128	6
TAP	49	144	7
TAP	49	176	1
TAP	49	192	0
XTP	49	240	6
XTP	49	288	2
XTP	49	336	4
XHO	50	0	0	192
TTP	50	96	0	C	0	M1
HLD	50	192	6	192
TTP	50	288	0	C	0	M1
HLD	51	0	2	192
TTP	51	96	0	C	0	M1
HLD	51	192	4	192
TTP	51	288	0	C	0	M1
TAP	52	0	3

T_REC_TAP	230
T_REC_BRK	8
T_REC_XTP	14
T_REC_HLD	44
T_REC_XHO	1
T_REC_STR	5
T_REC_BST	0
T_REC_XST	1
T_REC_TTP	63
T_REC_THO	5
T_REC_SLD	6
T_REC_ALL	377
T_NUM_TAP	313
T_NUM_BRK	8
T_NUM_HLD	50
T_NUM_SLD	6
T_NUM_ALL	377
T_JUDGE_TAP	321
T_JUDGE_HLD	336
T_JUDGE_SLD	6
T_JUDGE_ALL	663
TTM_EACHPAIRS	57
TTM_SCR_TAP	156500
TTM_SCR_BRK	20800
TTM_SCR_HLD	50000
TTM_SCR_SLD	9000
TTM_SCR_ALL	236300
TTM_SCR_S	228450
TTM_SCR_SS	235500
TTM_RAT_ACV	10033

