VERSION	0.00.00	1.03.00
FES_MODE	0
BPM_DEF	 93.000	 93.000	 93.000	 93.000
MET_DEF	4	4
RESOLUTION	384
CLK_DEF	384
COMPATIBLE_CODE	MA2

BPM	0	0	 93.000
MET	0	0	4	4

XTP	2	0	2
TAP	2	96	2
HLD	2	192	2	96
HLD	2	192	3	96
TAP	3	0	5
TAP	3	96	5
HLD	3	192	4	96
HLD	3	192	5	96
TAP	4	0	2
TAP	4	96	2
HLD	4	192	2	96
HLD	4	192	3	96
TAP	5	0	5
TAP	5	96	5
XTP	5	192	3
XTP	5	192	4
XTP	5	240	3
XTP	5	240	4
XTP	5	288	2
XTP	5	288	5
XTP	6	0	2
TAP	6	96	2
TAP	6	192	2
TAP	6	192	3
TAP	6	288	2
TAP	7	0	5
TAP	7	96	5
TAP	7	192	4
TAP	7	192	5
TAP	7	288	5
XTP	8	0	6
TAP	8	96	6
TAP	8	192	6
TAP	8	192	7
TAP	8	288	6
TAP	9	0	1
TAP	9	96	1
TAP	9	192	0
TAP	9	192	1
TAP	9	288	1
XTP	10	0	2
TAP	10	96	2
TAP	10	96	3
TAP	10	192	5
TAP	10	288	4
TAP	10	288	5
TAP	11	0	2
TAP	11	96	2
TAP	11	96	3
TAP	11	192	4
TAP	11	288	3
TAP	11	288	5
XTP	12	0	6
TAP	12	96	6
TAP	12	96	7
TAP	12	192	1
TAP	12	288	0
TAP	12	288	1
TAP	13	0	6
TAP	13	96	6
TAP	13	96	7
TAP	13	192	0
TAP	13	288	7
XHO	14	0	1	96
XHO	14	0	6	96
TAP	14	192	5
TAP	14	288	4
TAP	14	288	5
TAP	15	0	2
TAP	15	96	2
TAP	15	192	1
TAP	15	192	3
XHO	16	0	2	96
XHO	16	0	7	96
TAP	16	192	2
TAP	16	288	2
TAP	16	288	3
TAP	17	0	5
TAP	17	96	5
TAP	17	192	4
TAP	17	192	5
TAP	17	288	3
TAP	17	288	6
XST	18	0	6
SCL	18	0	6	96	72	3
TAP	18	192	2
TAP	18	288	2
TAP	18	288	3
XST	19	0	1
SCR	19	0	1	96	72	4
TAP	19	192	5
TAP	19	288	4
TAP	19	288	5
STR	20	0	6
SI_	20	0	6	96	48	3
STR	20	192	2
SI_	20	192	2	96	48	5
XTP	21	0	6
XTP	21	96	7
XTP	21	192	0
XTP	21	192	7
XTP	21	240	0
XTP	21	240	7
XTP	21	288	1
XTP	21	288	6
BRK	22	0	1
TAP	22	48	1
TAP	22	96	0
TAP	22	144	0
TAP	22	192	7
TAP	22	240	7
TAP	22	288	6
TAP	22	336	6
TAP	23	0	5
TAP	23	48	5
TAP	23	96	4
TAP	23	144	4
TAP	23	192	3
TAP	23	240	3
TAP	23	288	3
TAP	23	288	4
TAP	23	336	3
TAP	23	336	4
XTP	24	0	2
XTP	24	0	5
STR	24	192	1
SI_	24	192	1	96	48	5
STR	25	0	6
SI_	25	0	6	96	48	2
STR	25	192	1
SI_	25	192	1	96	48	4
XST	26	0	5
SI_	26	0	5	96	48	0
XTP	26	192	1
XTP	26	240	1
XTP	26	288	0
XTP	26	288	1
XST	27	0	1
SI_	27	0	1	96	48	4
XTP	27	192	5
XTP	27	240	5
XTP	27	288	4
XTP	27	288	5
XST	28	0	3
SI_	28	0	3	96	48	0
XTP	28	192	7
XTP	28	240	7
XTP	28	288	0
XTP	28	288	7
TAP	29	0	1
TAP	29	48	1
TAP	29	96	0
TAP	29	144	0
TAP	29	192	7
TAP	29	240	7
BRK	29	288	1
BRK	29	288	6
STR	30	0	1
SSL	30	0	1	96	192	5
STR	31	0	6
SSR	31	0	6	96	192	2
STR	32	0	1
SSR	32	0	1	96	192	5
XTP	33	0	6
XTP	33	96	5
XTP	33	192	3
XTP	33	192	4
XTP	33	240	3
XTP	33	240	4
XTP	33	288	2
XTP	33	288	5
TTP	34	96	3	B	0	L1
TTP	34	288	2	B	0	L1
TTP	35	96	1	B	0	L1
TTP	35	288	0	B	0	L1
TTP	36	96	7	B	0	L1
TTP	36	288	6	B	0	L1
TTP	37	96	5	B	0	L1
TTP	37	288	4	B	0	L1
TTP	38	96	3	B	0	L1
TTP	38	96	4	B	0	L1
TTP	38	288	2	B	0	L1
TTP	38	288	5	B	0	L1
TTP	39	96	1	B	0	L1
TTP	39	96	6	B	0	L1
TTP	39	288	0	B	0	L1
TTP	39	288	7	B	0	L1
TTP	40	96	1	E	0	L1
TTP	40	96	7	E	0	L1
TTP	40	288	1	B	0	L1
TTP	40	288	6	B	0	L1
TTP	41	96	2	B	0	L1
TTP	41	96	5	B	0	L1
TTP	41	288	0	C	0	L1
BRK	42	0	0
TAP	42	48	0
TAP	42	96	1
TAP	42	144	1
TAP	42	192	2
TAP	42	240	2
TAP	42	288	3
TAP	42	336	3
TAP	43	0	4
TAP	43	48	4
TAP	43	96	5
TAP	43	144	5
TAP	43	192	6
TAP	43	240	6
TAP	43	288	0
TAP	43	288	7
TAP	43	336	0
TAP	43	336	7
XTP	44	0	1
XTP	44	0	6
STR	44	192	1
SI_	44	192	1	96	48	4
STR	45	0	5
SI_	45	0	5	96	48	0
STR	45	192	1
SI_	45	192	1	96	48	5
STR	46	0	6
SCL	46	0	6	96	48	3
XTP	46	192	2
XTP	46	240	2
XTP	46	288	2
XTP	46	288	3
STR	47	0	2
SCL	47	0	2	96	48	7
XTP	47	192	6
XTP	47	240	6
XTP	47	288	6
XTP	47	288	7
STR	48	0	6
SCL	48	0	6	96	48	3
XTP	48	192	2
XTP	48	240	2
XTP	48	288	2
XTP	48	288	3
TAP	49	0	1
TAP	49	48	1
TAP	49	96	0
TAP	49	144	0
TAP	49	192	7
TAP	49	240	7
TAP	49	288	6
TAP	49	336	6
STR	50	0	5
SUR	50	0	5	96	168	2
STR	51	0	1
SUL	51	0	1	96	168	3
XTP	52	0	3
XTP	52	0	4

T_REC_TAP	116
T_REC_BRK	4
T_REC_XTP	57
T_REC_HLD	6
T_REC_XHO	4
T_REC_STR	16
T_REC_BST	0
T_REC_XST	5
T_REC_TTP	23
T_REC_THO	0
T_REC_SLD	21
T_REC_ALL	252
T_NUM_TAP	217
T_NUM_BRK	4
T_NUM_HLD	10
T_NUM_SLD	21
T_NUM_ALL	252
T_JUDGE_TAP	221
T_JUDGE_HLD	40
T_JUDGE_SLD	21
T_JUDGE_ALL	282
TTM_EACHPAIRS	46
TTM_SCR_TAP	108500
TTM_SCR_BRK	10400
TTM_SCR_HLD	10000
TTM_SCR_SLD	31500
TTM_SCR_ALL	160400
TTM_SCR_S	155200
TTM_SCR_SS	160000
TTM_RAT_ACV	10025

