VERSION	0.00.00	1.03.00
FES_MODE	0
BPM_DEF	 93.000	 93.000	 93.000	 93.000
MET_DEF	4	4
RESOLUTION	384
CLK_DEF	384
COMPATIBLE_CODE	MA2

BPM	0	0	 93.000
MET	0	0	4	4

TAP	2	0	3
TAP	2	192	3
TAP	3	0	3
TAP	4	0	4
TAP	4	192	4
TAP	5	0	4
TAP	6	0	3
TAP	6	192	3
TAP	7	0	2
TAP	7	192	2
TAP	8	0	1
TAP	8	192	1
TAP	9	0	0
TAP	9	96	0
XTP	9	192	0
TAP	10	0	7
TAP	10	192	7
TAP	11	0	6
TAP	11	192	6
TAP	12	0	5
TAP	12	192	5
TAP	13	0	4
TAP	13	96	4
XTP	13	192	4
HLD	14	0	3	192
TAP	15	0	3
TAP	15	96	3
TAP	15	192	3
TAP	15	192	4
HLD	16	0	4	192
TAP	17	0	4
TAP	17	96	4
TAP	17	192	3
TAP	17	192	4
TAP	18	0	5
TAP	18	192	5
TAP	19	0	6
TAP	19	192	6
TAP	20	0	7
TAP	20	192	7
TAP	21	0	0
TAP	21	0	7
TAP	21	96	0
TAP	21	96	7
BRK	21	192	0
BRK	21	192	7
TAP	22	0	1
TAP	22	96	1
TAP	22	192	1
TAP	23	0	2
TAP	23	96	2
TAP	23	192	2
HLD	24	0	3	192
HLD	25	0	4	192
TAP	26	0	5
TAP	26	96	5
TAP	26	192	4
TAP	26	192	5
TAP	27	0	4
TAP	27	96	4
TAP	27	192	3
TAP	27	192	4
TAP	28	0	3
TAP	28	96	3
TAP	28	192	2
TAP	28	192	3
TAP	29	0	2
TAP	29	96	2
TAP	29	192	2
TAP	29	192	3
STR	30	0	1
SI_	30	0	1	96	288	5
STR	32	0	6
SI_	32	0	6	96	288	2
TTP	34	0	0	B	0	L1
TTP	34	192	1	B	0	L1
TTP	35	0	2	B	0	L1
TTP	35	192	3	B	0	L1
TTP	36	0	4	B	0	L1
TTP	36	192	5	B	0	L1
TTP	37	0	6	B	0	L1
TTP	37	192	0	B	0	L1
TTP	37	192	7	B	0	L1
TTP	38	0	1	B	0	L1
TTP	38	0	6	B	0	L1
TTP	38	192	2	B	0	L1
TTP	38	192	5	B	0	L1
TTP	39	0	3	E	0	L1
TTP	39	0	5	E	0	L1
TTP	39	192	3	B	0	L1
TTP	39	192	4	B	0	L1
THO	40	0	0	576	C	1	L1
TAP	42	0	7
TAP	42	96	7
TAP	42	192	6
TAP	42	288	6
TAP	43	0	5
TAP	43	96	5
TAP	43	192	3
TAP	43	192	4
TAP	44	0	3
TAP	44	96	3
XTP	44	192	2
XTP	44	192	4
TAP	45	0	4
TAP	45	96	4
XTP	45	192	3
XTP	45	192	5
TAP	46	0	3
TAP	46	96	3
TAP	46	192	2
TAP	46	288	2
TAP	47	0	1
TAP	47	96	1
TAP	47	192	0
TAP	47	192	7
TAP	48	0	7
TAP	48	96	7
XTP	48	192	0
XTP	48	192	6
TAP	49	0	0
TAP	49	96	0
BRK	49	192	1
BRK	49	192	7
STR	50	0	0
SI_	50	0	0	96	288	4
TAP	52	0	3
TAP	52	0	4

T_REC_TAP	88
T_REC_BRK	4
T_REC_XTP	8
T_REC_HLD	4
T_REC_XHO	0
T_REC_STR	3
T_REC_BST	0
T_REC_XST	0
T_REC_TTP	17
T_REC_THO	1
T_REC_SLD	3
T_REC_ALL	128
T_NUM_TAP	116
T_NUM_BRK	4
T_NUM_HLD	5
T_NUM_SLD	3
T_NUM_ALL	128
T_JUDGE_TAP	120
T_JUDGE_HLD	56
T_JUDGE_SLD	3
T_JUDGE_ALL	179
TTM_EACHPAIRS	16
TTM_SCR_TAP	58000
TTM_SCR_BRK	10400
TTM_SCR_HLD	5000
TTM_SCR_SLD	4500
TTM_SCR_ALL	77900
TTM_SCR_S	75200
TTM_SCR_SS	77500
TTM_RAT_ACV	10051

