VERSION	0.00.00	1.03.00
FES_MODE	0
BPM_DEF	125.000	125.000	125.000	125.000
MET_DEF	4	4
RESOLUTION	384
CLK_DEF	384
COMPATIBLE_CODE	MA2

BPM	0	0	125.000
MET	0	0	4	4

STR	1	0	1
SI_	1	0	1	96	48	4
TAP	1	0	7
TAP	1	48	0
TAP	1	96	0
HLD	1	192	6	72
HLD	1	264	5	72
STR	1	336	4
SI_	1	336	4	96	48	0
TAP	2	48	3
TAP	2	96	3
STR	2	192	1
SCR	2	192	1	96	48	4
STR	2	192	7
SCL	2	192	7	96	48	4
STR	3	0	0
SCL	3	0	0	96	48	5
SCR	3	0	0	96	48	3
HLD	3	192	4	72
HLD	3	264	5	72
STR	3	336	6
SI_	3	336	6	96	48	0
STR	4	48	2
SI_	4	48	2	96	48	6
STR	4	144	4
SI_	4	144	4	96	48	2
TAP	4	240	1
TAP	4	288	1
TAP	5	0	0
STR	5	0	6
SI_	5	0	6	96	48	3
TAP	5	48	7
TAP	5	96	7
HLD	5	192	1	72
HLD	5	264	2	72
STR	5	336	3
SI_	5	336	3	96	48	7
TAP	6	48	4
TAP	6	96	4
STR	6	192	0
SCR	6	192	0	96	48	3
STR	6	192	6
SCL	6	192	6	96	48	3
HLD	7	0	7	72
HLD	7	72	6	72
TAP	7	144	5
HLD	7	192	0	72
HLD	7	264	1	72
STR	7	336	2
SCR	7	336	2	96	48	5
TAP	8	48	6
TAP	8	96	7
TAP	8	144	0
TAP	8	192	1
TAP	8	192	6
TAP	9	0	3
STR	9	0	5
SUR	9	0	5	96	96	3
HLD	9	96	2	144
TAP	9	240	0
TAP	9	312	1
TAP	9	312	3
STR	10	0	2
SUL	10	0	2	96	96	4
TAP	10	0	4
HLD	10	96	5	144
TAP	10	240	7
TAP	10	312	4
TAP	10	312	6
TAP	11	0	3
STR	11	0	5
SUR	11	0	5	96	96	3
HLD	11	96	2	144
TAP	11	240	0
TAP	11	312	1
TAP	11	312	3
TAP	12	0	4
TAP	12	0	6
TAP	12	72	2
TAP	12	72	5
TAP	12	144	3
TAP	12	144	4
STR	12	192	0
SI_	12	192	0	96	48	3
STR	12	192	7
SI_	12	192	7	96	48	4
HLD	13	0	1	48
TAP	13	0	5
TAP	13	48	4
TAP	13	96	2
HLD	13	96	3	48
TAP	13	144	1
HLD	13	192	0	48
TAP	13	192	4
TAP	13	240	5
TAP	13	288	2
HLD	13	288	6	48
TAP	13	336	3
HLD	14	0	4	48
TAP	14	0	5
TAP	14	48	6
TAP	14	96	3
HLD	14	96	7	48
TAP	14	144	2
HLD	14	192	1	48
TAP	14	192	5
TAP	14	240	4
TAP	14	288	2
HLD	14	288	3	48
TAP	14	336	1
HLD	15	0	0	48
TAP	15	0	4
TAP	15	48	5
TAP	15	96	2
HLD	15	96	6	48
TAP	15	144	3
HLD	15	192	4	48
TAP	15	192	5
TAP	15	240	6
TAP	15	288	3
TAP	15	288	7
TAP	15	336	3
HLD	15	336	7	96
TAP	16	48	0
TAP	16	96	1
TAP	16	96	6
TAP	16	144	2
TAP	16	144	5
STR	16	192	3
SI_	16	192	3	96	48	0
STR	16	192	4
SI_	16	192	4	96	48	7
STR	17	0	1
SCR	17	0	1	96	192	6
TAP	17	0	6
TTP	17	96	0	C	0	M1
STR	17	192	6
SUR	17	192	6	96	192	0
TTP	17	288	0	C	0	M1
STR	18	0	0
SCR	18	0	0	96	192	5
TTP	18	96	0	C	0	M1
STR	18	192	5
SUR	18	192	5	96	192	7
TTP	18	288	0	C	0	M1
STR	19	0	7
SCR	19	0	7	96	192	4
TTP	19	96	0	C	0	M1
STR	19	192	4
SUR	19	192	4	96	192	6
TTP	19	288	0	C	0	M1
STR	20	0	6
SCR	20	0	6	96	96	1
TTP	20	96	0	C	0	M1
TAP	20	192	3
TAP	20	240	3
TAP	20	240	4
TAP	20	288	1
TAP	20	288	6
STR	21	0	3
SI_	21	0	3	96	48	7
TAP	21	0	4
TAP	21	48	4
TAP	21	96	4
TAP	21	144	4
STR	21	192	0
SI_	21	192	0	96	48	4
TAP	21	192	5
TAP	21	240	5
TAP	21	288	5
TAP	21	336	5
TAP	22	0	6
TAP	22	48	2
TAP	22	48	6
TAP	22	96	3
TAP	22	96	6
TAP	22	144	4
TAP	22	144	6
STR	22	192	5
SCL	22	192	5	96	48	2
TAP	22	192	7
TAP	22	240	7
TAP	22	288	7
TAP	22	336	7
TAP	23	0	0
TAP	23	48	0
TAP	23	48	5
TAP	23	96	0
TAP	23	96	4
TAP	23	144	0
TAP	23	144	3
TAP	23	192	1
STR	23	192	2
SCR	23	192	2	96	48	5
TAP	23	240	1
TAP	23	288	1
TAP	23	336	1
TAP	24	0	2
STR	24	0	7
SI_	24	0	7	96	48	3
TAP	24	48	2
TAP	24	96	2
TAP	24	144	2
XTP	24	192	3
STR	24	192	4
SCR	24	192	4	96	48	7
STR	24	288	0
SCR	24	288	0	96	48	3
XTP	24	288	4
XTP	25	0	0
THO	25	0	0	336	C	1	M1
TAP	26	48	1
TAP	26	48	3
TAP	26	96	2
STR	26	96	4
SCR	26	96	4	96	144	3
TAP	26	144	3
TAP	26	144	5
BRK	26	192	4
TAP	26	192	6
TAP	27	0	1
STR	27	0	6
SI_	27	0	6	96	48	4
TAP	27	48	3
STR	27	96	2
SI_	27	96	2	96	48	5
TAP	27	96	6
TAP	27	144	1
TAP	27	192	2
STR	27	192	7
SI_	27	192	7	96	48	3
TAP	27	240	6
STR	27	288	1
SI_	27	288	1	96	48	4
TAP	27	288	7
TAP	27	336	0
TAP	28	0	1
STR	28	0	6
SI_	28	0	6	96	48	2
TAP	28	48	7
STR	28	96	0
SI_	28	96	0	96	48	3
TAP	28	96	6
TAP	28	144	1
TAP	28	192	0
STR	28	192	5
SCL	28	192	5	96	48	2
TAP	28	240	6
TAP	28	288	0
TAP	28	288	5
XHO	28	336	0	96
STR	29	48	3
SCL	29	48	3	96	48	0
TAP	29	96	4
XHO	29	144	6	96
STR	29	240	4
SCR	29	240	4	96	48	7
TAP	29	288	3
XHO	29	336	2	96
TAP	30	48	3
TAP	30	96	1
TAP	30	96	4
TAP	30	144	3
TAP	30	144	6
XST	30	192	0
SCR	30	192	0	96	48	3
XST	30	192	7
SCL	30	192	7	96	48	4
TAP	31	0	1
STR	31	0	6
SI_	31	0	6	96	48	2
TAP	31	48	7
STR	31	96	0
SI_	31	96	0	96	48	3
TAP	31	96	6
TAP	31	144	1
TAP	31	192	0
STR	31	192	5
SCL	31	192	5	96	48	2
TAP	31	240	6
TAP	31	288	0
TAP	31	288	5
TAP	31	336	1
TAP	32	0	2
TAP	32	0	3
TAP	32	48	6
TAP	32	96	4
TAP	32	96	5
STR	32	144	1
SI_	32	144	1	96	48	5
TAP	32	192	0
STR	32	240	7
SI_	32	240	7	96	48	2
SI_	32	240	7	96	48	4
TAP	32	288	6
XTP	32	336	7
STR	33	48	1
SCR	33	48	1	96	48	4
STR	33	48	5
SCR	33	48	5	96	48	0
TAP	33	96	0
TAP	33	96	4
XTP	33	144	1
XTP	33	144	5
STR	33	240	2
SCL	33	240	2	96	48	7
STR	33	240	6
SCL	33	240	6	96	48	3
TAP	33	288	3
TAP	33	288	7
XTP	33	336	2
XTP	33	336	6
TAP	34	48	1
TAP	34	48	5
TAP	34	96	2
TAP	34	96	7
TAP	34	144	0
TAP	34	144	5
XST	34	192	3
SCL	34	192	3	96	48	0
XST	34	192	7
SCL	34	192	7	96	48	4
HLD	35	0	2	96
TTP	35	96	2	B	0	M1
TTP	35	192	2	E	0	M1
TTP	35	240	3	E	0	M1
HLD	35	336	2	96
TTP	36	48	3	E	0	M1
TTP	36	96	2	E	0	M1
TTP	36	192	2	B	0	M1
TAP	36	240	1
TAP	36	288	1
TAP	36	288	3
HLD	37	0	5	96
TTP	37	96	5	B	0	M1
TTP	37	192	6	E	0	M1
TTP	37	240	5	E	0	M1
HLD	37	336	5	96
TTP	38	48	5	E	0	M1
TTP	38	96	6	E	0	M1
TTP	38	192	5	B	0	M1
TAP	38	240	6
TAP	38	288	4
TAP	38	288	6
HLD	39	0	3	96
TTP	39	96	4	E	0	M1
TTP	39	192	4	B	0	M1
TTP	39	240	3	B	0	M1
HLD	39	336	4	96
TTP	40	48	3	B	0	M1
TTP	40	96	4	B	0	M1
TTP	40	192	4	E	0	M1
TAP	40	240	2
TAP	40	240	5
TAP	40	288	2
TAP	40	288	5
STR	41	0	2
SCR	41	0	2	96	48	5
STR	41	144	6
SUL	41	144	6	96	48	1
STR	41	288	0
SUL	41	288	0	96	336	7
THO	42	336	0	432	C	0	M1
TAP	48	0	1
TTP	48	96	1	B	0	M1
TAP	48	192	2
TTP	48	288	2	B	0	M1
TAP	49	0	3
TTP	49	96	3	B	0	M1
TAP	49	192	4
TTP	49	288	4	B	0	M1
TAP	50	0	5
TTP	50	96	5	B	0	M1
TAP	50	192	6
TTP	50	288	6	B	0	M1
TAP	50	336	0
TAP	50	352	7
TAP	50	368	0
TAP	51	0	7
TAP	51	72	4
TAP	51	72	6
TAP	51	144	1
TAP	51	144	3
STR	51	192	3
SCR	51	192	3	96	48	5
STR	51	192	4
SCL	51	192	4	96	48	2
STR	52	0	1
SI_	52	0	1	96	48	5
TAP	52	0	6
TAP	52	48	3
TAP	52	48	4
BRK	52	96	1
BST	52	96	6
SI_	52	96	6	96	48	3
TAP	52	144	7
STR	52	192	0
SI_	52	192	0	96	48	4
TAP	52	192	6
TAP	52	240	1
TAP	52	288	0
STR	52	288	5
SI_	52	288	5	96	48	1
TAP	52	336	6
STR	53	0	2
SI_	53	0	2	96	48	7
TAP	53	0	5
TAP	53	48	3
TAP	53	96	2
STR	53	96	4
SI_	53	96	4	96	48	0
TAP	53	144	5
STR	53	192	2
SCR	53	192	2	96	48	5
TAP	53	192	4
TAP	53	240	1
TAP	53	288	2
TAP	53	288	7
BRK	53	336	7
STR	54	48	2
SI_	54	48	2	96	48	7
STR	54	48	6
SI_	54	48	6	96	48	3
TAP	54	96	1
TAP	54	96	5
XTP	54	144	2
XTP	54	144	6
STR	54	240	1
SI_	54	240	1	96	48	4
STR	54	240	5
SI_	54	240	5	96	48	0
TAP	54	288	2
TAP	54	288	6
XTP	54	336	1
XTP	54	336	5
STR	55	48	0
SCR	55	48	0	96	48	3
STR	55	48	7
SCL	55	48	7	96	48	4
TAP	55	96	2
TAP	55	96	5
XTP	55	144	0
XTP	55	144	7
XTP	55	240	3
XTP	55	240	4
BRK	55	288	1
BRK	55	288	6
TAP	56	0	1
STR	56	0	6
SI_	56	0	6	96	48	4
TAP	56	48	3
STR	56	96	2
SI_	56	96	2	96	48	5
TAP	56	96	6
TAP	56	144	1
TAP	56	192	2
STR	56	192	7
SI_	56	192	7	96	48	3
TAP	56	240	6
STR	56	288	1
SI_	56	288	1	96	48	4
TAP	56	288	7
TAP	56	336	0
TAP	57	0	1
STR	57	0	6
SI_	57	0	6	96	48	2
TAP	57	48	7
STR	57	96	0
SI_	57	96	0	96	48	3
TAP	57	96	6
TAP	57	144	1
TAP	57	192	0
TAP	57	192	7
STR	57	240	6
SXL	57	240	6	96	144	3
TAP	57	288	3
TAP	57	288	5
HLD	57	336	2	192
TAP	57	336	6
BRK	58	144	7
STR	58	240	1
SXR	58	240	1	96	144	4
TAP	58	240	5
TAP	58	288	2
TAP	58	288	6
TAP	58	336	1
HLD	58	336	5	192
TAP	59	144	0
STR	59	192	0
SI_	59	192	0	96	48	4
STR	59	192	7
SI_	59	192	7	96	48	3
TTP	59	288	0	C	1	M1
STR	60	0	1
SI_	60	0	1	96	48	4
TAP	60	0	6
TAP	60	48	0
STR	60	96	6
SI_	60	96	6	96	48	3
TAP	60	144	7
STR	60	192	1
SI_	60	192	1	96	48	4
TAP	60	240	0
STR	60	288	6
SI_	60	288	6	96	48	3
TAP	60	336	7
STR	61	0	1
SI_	61	0	1	96	48	4
TAP	61	48	0
STR	61	96	6
SI_	61	96	6	96	48	3
TAP	61	144	7
STR	61	192	2
SCL	61	192	2	96	96	5
TAP	61	240	2
TAP	61	288	4
HLD	61	336	4	96
TAP	62	48	3
TAP	62	96	3
TAP	62	96	4
TAP	62	144	2
TAP	62	168	1
TAP	62	168	3
TAP	62	216	6
TAP	62	240	5
TAP	62	240	7
TAP	62	288	1
TAP	62	312	0
TAP	62	312	2
TAP	62	360	5
TAP	63	0	4
TAP	63	0	6
TAP	63	48	2
TAP	63	72	1
TAP	63	72	3
TAP	63	84	4
TAP	63	96	5
TAP	63	108	6
TAP	63	120	7
TAP	63	132	0
TAP	63	144	1
TAP	63	156	2
TAP	63	168	3
TAP	63	180	4
TAP	63	192	0
TAP	63	208	7
TAP	63	224	0
TAP	63	240	7
TAP	63	256	0
TAP	63	272	7
TAP	63	288	0
TAP	63	304	7
TAP	63	320	0
TAP	63	336	7
TAP	63	352	0
TAP	63	368	7
STR	64	0	1
SI_	64	0	1	96	48	4
TAP	64	0	6
TAP	64	48	5
TAP	64	96	1
STR	64	96	6
SUL	64	96	6	96	48	2
TAP	64	144	7
STR	64	192	1
SI_	64	192	1	96	48	4
TAP	64	192	6
TAP	64	240	0
TAP	64	288	1
STR	64	288	7
SI_	64	288	7	96	48	3
TAP	64	336	5
STR	65	0	1
SI_	65	0	1	96	48	4
TAP	65	0	7
TAP	65	48	0
TAP	65	96	1
STR	65	96	6
SUL	65	96	6	96	48	2
TAP	65	144	7
STR	65	192	1
SI_	65	192	1	96	48	4
TAP	65	192	6
TAP	65	240	0
TAP	65	288	1
STR	65	288	7
SI_	65	288	7	96	48	3
TAP	65	336	5
STR	66	0	1
SUR	66	0	1	96	48	5
TAP	66	0	7
TAP	66	48	0
TAP	66	96	1
STR	66	96	6
SI_	66	96	6	96	48	3
TAP	66	144	7
STR	66	192	0
SI_	66	192	0	96	48	4
TAP	66	192	6
TAP	66	240	2
TAP	66	288	0
STR	66	288	6
SI_	66	288	6	96	48	3
TAP	66	336	7
STR	67	0	1
SUR	67	0	1	96	48	5
TAP	67	0	6
TAP	67	48	0
TAP	67	96	1
STR	67	96	6
SI_	67	96	6	96	48	3
TAP	67	144	7
STR	67	192	0
SI_	67	192	0	96	48	4
TAP	67	192	6
TAP	67	240	2
BRK	67	288	0
BRK	67	288	4
TAP	68	0	2
HLD	68	0	6	96
TAP	68	96	4
HLD	68	144	1	96
TAP	68	144	5
TAP	68	240	2
TAP	68	288	1
TAP	68	336	2
HLD	68	336	6	96
TAP	69	48	5
TAP	69	96	6
HLD	69	144	2	96
TAP	69	144	4
TAP	69	240	3
TAP	69	288	2
TAP	69	336	3
HLD	69	336	5	96
TAP	70	48	4
TAP	70	96	5
HLD	70	144	2	96
TAP	70	144	4
TAP	70	240	3
TAP	70	288	2
TAP	70	336	3
HLD	70	336	4	96
TTP	71	48	3	B	0	M1
TTP	71	96	4	B	0	M1
TTP	71	144	0	C	1	M1

T_REC_TAP	325
T_REC_BRK	8
T_REC_XTP	16
T_REC_HLD	41
T_REC_XHO	3
T_REC_STR	102
T_REC_BST	1
T_REC_XST	4
T_REC_TTP	35
T_REC_THO	2
T_REC_SLD	109
T_REC_ALL	646
T_NUM_TAP	482
T_NUM_BRK	9
T_NUM_HLD	46
T_NUM_SLD	109
T_NUM_ALL	646
T_JUDGE_TAP	491
T_JUDGE_HLD	100
T_JUDGE_SLD	109
T_JUDGE_ALL	700
TTM_EACHPAIRS	148
TTM_SCR_TAP	241000
TTM_SCR_BRK	23400
TTM_SCR_HLD	46000
TTM_SCR_SLD	163500
TTM_SCR_ALL	473900
TTM_SCR_S	458850
TTM_SCR_SS	473000
TTM_RAT_ACV	10019

