VERSION	0.00.00	1.03.00
FES_MODE	0
BPM_DEF	125.000	125.000	125.000	125.000
MET_DEF	4	4
RESOLUTION	384
CLK_DEF	384
COMPATIBLE_CODE	MA2

BPM	0	0	125.000
MET	0	0	4	4

TAP	1	0	0
TAP	1	48	0
TAP	1	96	1
TAP	1	96	7
HLD	1	192	6	72
HLD	1	264	5	72
TAP	1	336	4
TAP	2	48	2
TAP	2	96	2
TAP	2	96	3
TAP	2	192	5
TAP	2	288	4
TAP	2	288	6
TAP	3	0	2
TAP	3	96	1
TAP	3	96	3
HLD	3	192	4	72
HLD	3	264	5	72
TAP	3	336	6
TAP	4	48	7
TAP	4	96	7
TAP	4	144	0
TAP	4	240	2
TAP	4	288	3
TAP	4	288	4
TAP	5	0	7
TAP	5	48	7
TAP	5	96	0
TAP	5	96	6
HLD	5	192	1	72
HLD	5	264	2	72
TAP	5	336	3
TAP	6	48	5
TAP	6	96	5
TAP	6	144	4
TAP	6	192	3
TAP	6	240	2
TAP	6	336	1
HLD	7	0	1	72
HLD	7	72	2	72
TAP	7	144	3
HLD	7	192	4	72
HLD	7	264	5	72
TAP	7	336	6
TAP	8	48	7
TAP	8	96	7
TAP	8	144	0
TAP	8	192	0
TAP	8	192	7
HLD	9	0	1	96
TAP	9	96	3
TAP	9	192	4
TAP	9	240	4
TAP	9	288	3
TAP	9	288	5
HLD	10	0	6	96
TAP	10	96	4
TAP	10	192	3
TAP	10	240	3
TAP	10	288	2
TAP	10	288	4
HLD	11	0	1	96
TAP	11	96	3
TAP	11	192	4
TAP	11	240	4
TAP	11	288	3
TAP	11	288	5
HLD	12	0	6	96
TAP	12	96	4
TAP	12	192	3
TAP	12	192	5
TAP	12	288	3
TAP	12	288	5
TAP	13	0	2
TAP	13	48	2
TAP	13	96	3
TAP	13	192	2
TAP	13	192	4
TAP	13	288	3
TAP	13	288	6
TAP	14	0	5
TAP	14	48	5
TAP	14	96	4
TAP	14	192	3
TAP	14	192	5
TAP	14	288	1
TAP	14	288	4
STR	15	0	0
SCR	15	0	0	96	96	3
HLD	15	192	7	96
TAP	15	288	0
TAP	15	336	0
TAP	16	48	2
TAP	16	48	5
TAP	16	96	2
TAP	16	96	5
TAP	16	192	3
TAP	16	192	4
HLD	17	0	5	192
HLD	17	192	7	192
HLD	18	0	0	192
HLD	18	192	2	192
TAP	19	0	3
TAP	19	96	3
TAP	19	192	3
STR	19	288	3
SCL	19	288	3	96	192	4
TAP	21	0	5
TAP	21	48	5
TAP	21	96	3
TAP	21	144	3
TAP	21	192	6
TAP	21	240	6
TAP	21	288	4
TAP	21	336	4
TAP	22	0	5
TAP	22	48	5
TAP	22	96	2
TAP	22	144	2
TAP	22	192	4
TAP	22	240	4
TAP	22	288	3
TAP	22	288	5
TAP	23	0	2
TAP	23	48	2
TAP	23	96	4
TAP	23	144	4
TAP	23	192	1
TAP	23	240	1
TAP	23	288	3
TAP	23	336	3
TAP	24	0	2
TAP	24	48	2
TAP	24	96	5
TAP	24	144	5
TAP	24	192	4
TAP	24	192	6
TAP	24	288	1
TAP	24	288	3
BRK	25	0	0
BST	25	0	7
SSR	25	0	7	96	288	3
XTP	26	192	2
XTP	26	192	5
TAP	27	0	6
TAP	27	0	7
TAP	27	48	6
TAP	27	48	7
TAP	27	96	0
STR	27	96	5
SCL	27	96	5	96	96	2
TAP	27	288	1
TAP	28	0	0
TAP	28	0	1
TAP	28	48	0
TAP	28	48	1
STR	28	96	2
SCR	28	96	2	96	96	5
TAP	28	96	7
TAP	28	288	6
HLD	28	336	6	96
TAP	29	48	0
TAP	29	96	0
TAP	29	144	1
TAP	29	144	7
TAP	29	240	2
TAP	29	288	2
TAP	29	336	1
TAP	29	336	3
TAP	30	48	5
STR	30	96	5
SI_	30	96	5	96	96	2
TAP	31	0	0
TAP	31	0	1
TAP	31	48	0
TAP	31	48	1
STR	31	96	2
SCR	31	96	2	96	96	5
TAP	31	96	7
TAP	31	288	6
TAP	32	0	6
TAP	32	0	7
TAP	32	48	6
TAP	32	48	7
TAP	32	96	0
STR	32	96	5
SCL	32	96	5	96	96	2
TAP	32	288	1
HLD	32	336	1	96
TAP	33	48	7
TAP	33	96	7
TAP	33	144	0
TAP	33	144	6
TAP	33	240	5
TAP	33	288	5
TAP	33	336	4
TAP	33	336	6
TAP	34	48	2
TAP	34	96	2
BRK	34	192	1
BRK	34	192	5
HLD	35	0	6	192
TTP	35	96	4	B	0	M1
HLD	35	192	1	192
TTP	35	288	3	B	0	M1
HLD	36	0	6	192
TTP	36	96	4	B	0	M1
TAP	36	192	0
TAP	36	240	7
TAP	36	288	7
HLD	37	0	1	192
TTP	37	96	3	B	0	M1
HLD	37	192	6	192
TTP	37	288	4	B	0	M1
HLD	38	0	1	192
TTP	38	96	3	B	0	M1
TAP	38	192	7
TAP	38	240	0
TAP	38	288	0
HLD	39	0	6	192
TTP	39	96	5	E	0	M1
HLD	39	192	1	192
TTP	39	288	3	E	0	M1
HLD	40	0	6	192
TTP	40	96	5	E	0	M1
TAP	40	192	0
TAP	40	240	7
TAP	40	288	7
HLD	41	0	1	144
HLD	41	144	3	144
STR	41	288	4
SCR	41	288	4	96	288	3
HLD	44	0	5	384
HLD	45	0	4	384
HLD	46	0	3	384
TAP	47	0	2
TAP	47	96	2
STR	47	192	2
SCR	47	192	2	96	96	5
TTP	48	96	3	B	0	M1
TTP	48	96	6	E	0	M1
TTP	48	288	2	E	0	M1
TTP	48	288	4	B	0	M1
TTP	49	96	3	B	0	M1
TTP	49	96	6	E	0	M1
TTP	49	288	2	E	0	M1
TTP	49	288	4	B	0	M1
TTP	50	96	3	B	0	M1
TTP	50	96	6	E	0	M1
TTP	50	288	2	E	0	M1
TTP	50	288	4	B	0	M1
HLD	51	0	5	72
HLD	51	72	6	72
TAP	51	144	7
HLD	51	192	0	72
HLD	51	264	1	72
TAP	51	336	2
TAP	52	0	3
TAP	52	0	4
BRK	52	96	1
BRK	52	96	6
TAP	52	192	7
TAP	52	240	7
TAP	52	288	0
TAP	53	0	6
TAP	53	0	7
TAP	53	48	6
TAP	53	48	7
TAP	53	96	0
STR	53	96	5
SCL	53	96	5	96	96	2
TAP	53	288	1
TAP	53	336	1
TTP	54	144	0	C	1	M1
TTP	54	144	2	B	0	M1
TTP	54	144	6	B	0	M1
TTP	54	336	0	C	1	M1
TTP	54	336	1	B	0	M1
TTP	54	336	5	B	0	M1
TTP	55	144	0	C	1	M1
TTP	55	144	2	B	0	M1
TTP	55	144	6	B	0	M1
XTP	55	240	0
XTP	55	288	0
TAP	56	0	6
TAP	56	0	7
TAP	56	48	6
TAP	56	48	7
TAP	56	96	0
STR	56	96	5
SCL	56	96	5	96	96	2
TAP	56	288	1
TAP	57	0	0
TAP	57	0	1
TAP	57	48	0
TAP	57	48	1
STR	57	96	2
SI_	57	96	2	96	96	7
TAP	57	96	6
TAP	57	288	5
HLD	57	336	5	96
TAP	58	48	4
TAP	58	96	4
TAP	58	144	3
TAP	58	144	5
TAP	58	240	2
TAP	58	288	2
TAP	58	336	1
TAP	58	336	3
TAP	59	48	5
HLD	59	96	5	96
TAP	59	192	4
TAP	59	288	3
TAP	59	288	6
HLD	60	0	7	96
HLD	60	96	6	96
HLD	60	192	5	96
TAP	60	288	4
TAP	60	336	4
HLD	61	0	3	96
HLD	61	96	2	96
HLD	61	192	1	96
TAP	61	288	0
TAP	61	336	0
TAP	62	0	2
TAP	62	0	7
TAP	62	96	1
TAP	62	96	4
TAP	62	192	0
TAP	62	192	5
TAP	62	288	3
TAP	62	288	6
TAP	63	0	2
TAP	63	0	7
TAP	63	96	1
STR	63	96	4
SI_	63	96	4	96	96	7
HLD	64	0	0	96
HLD	64	96	1	96
HLD	64	192	2	96
TAP	64	288	3
TAP	64	336	3
HLD	65	0	4	96
HLD	65	96	5	96
HLD	65	192	6	96
TAP	65	288	7
TAP	65	336	7
TAP	66	0	0
TAP	66	0	5
TAP	66	96	3
TAP	66	96	6
TAP	66	192	2
TAP	66	192	7
TAP	66	288	1
TAP	66	288	4
TAP	67	0	0
TAP	67	0	5
STR	67	96	3
SI_	67	96	3	96	96	0
TAP	67	96	6
HLD	68	0	5	384
TAP	68	96	4
TAP	68	288	4
HLD	69	0	2	384
TAP	69	96	3
TAP	69	288	3
HLD	70	0	5	384
TAP	70	96	4
TAP	70	288	4
TAP	71	0	3
TTP	71	96	0	C	1	M1

T_REC_TAP	245
T_REC_BRK	5
T_REC_XTP	4
T_REC_HLD	56
T_REC_XHO	0
T_REC_STR	14
T_REC_BST	1
T_REC_XST	0
T_REC_TTP	31
T_REC_THO	0
T_REC_SLD	15
T_REC_ALL	371
T_NUM_TAP	294
T_NUM_BRK	6
T_NUM_HLD	56
T_NUM_SLD	15
T_NUM_ALL	371
T_JUDGE_TAP	300
T_JUDGE_HLD	176
T_JUDGE_SLD	15
T_JUDGE_ALL	491
TTM_EACHPAIRS	67
TTM_SCR_TAP	147000
TTM_SCR_BRK	15600
TTM_SCR_HLD	56000
TTM_SCR_SLD	22500
TTM_SCR_ALL	241100
TTM_SCR_S	233300
TTM_SCR_SS	240500
TTM_RAT_ACV	10024

