VERSION	0.00.00	1.03.00
FES_MODE	0
BPM_DEF	125.000	125.000	125.000	125.000
MET_DEF	4	4
RESOLUTION	384
CLK_DEF	384
COMPATIBLE_CODE	MA2

BPM	0	0	125.000
MET	0	0	4	4

XTP	1	0	2
TAP	1	96	2
TAP	1	192	2
TAP	1	192	3
TAP	2	0	5
TAP	2	96	5
TAP	2	192	4
TAP	2	192	5
TAP	3	0	6
TAP	3	96	6
TAP	3	192	7
TAP	3	288	7
TAP	4	0	0
TAP	4	96	0
TAP	4	192	1
TAP	4	192	7
TAP	5	0	1
TAP	5	96	1
TAP	5	192	0
TAP	5	192	1
TAP	6	0	6
TAP	6	96	6
TAP	6	192	6
TAP	6	192	7
TAP	7	0	5
TAP	7	96	5
TAP	7	192	4
TAP	7	288	4
TAP	8	0	3
TAP	8	96	3
TAP	8	192	2
TAP	8	192	4
HLD	9	0	2	192
TAP	9	192	3
HLD	10	0	5	192
TAP	10	192	4
HLD	11	0	2	192
TAP	11	192	3
HLD	12	0	4	96
HLD	12	0	5	96
TAP	12	192	4
TAP	12	192	5
TAP	13	0	2
TAP	13	96	2
TAP	13	192	3
TAP	14	0	5
TAP	14	96	5
TAP	14	192	4
TAP	15	0	2
TAP	15	96	2
TAP	15	192	3
TAP	15	288	3
TAP	16	0	4
TAP	16	96	4
XTP	16	192	2
XTP	16	192	5
STR	17	0	2
SI_	17	0	2	96	144	5
STR	18	0	6
SI_	18	0	6	96	144	2
STR	19	0	1
SI_	19	0	1	96	144	4
TAP	20	0	5
TAP	20	192	4
TAP	20	192	5
TAP	21	0	2
TAP	21	96	2
HLD	21	192	2	96
HLD	21	192	3	96
TAP	22	0	5
TAP	22	96	5
HLD	22	192	4	96
HLD	22	192	5	96
TAP	23	0	2
TAP	23	96	2
HLD	23	192	2	96
HLD	23	192	3	96
TAP	24	0	5
TAP	24	96	5
TAP	24	192	4
TAP	24	288	4
STR	25	0	3
SI_	25	0	3	96	144	0
STR	25	0	4
SI_	25	0	4	96	144	7
XTP	26	0	0
XTP	26	0	7
XTP	26	96	0
XTP	26	96	7
XTP	26	192	1
XTP	26	192	6
BRK	27	0	1
TAP	27	96	0
TAP	27	96	1
TAP	27	192	1
TAP	27	288	0
TAP	27	288	1
TAP	28	0	2
TAP	28	96	2
TAP	28	96	3
TAP	28	192	2
TAP	28	288	2
TAP	28	288	3
TAP	29	0	4
TAP	29	96	4
TAP	29	192	5
TAP	29	288	5
TAP	30	0	6
TAP	30	96	6
TAP	30	192	1
TAP	30	192	7
TAP	31	0	6
TAP	31	96	6
TAP	31	96	7
TAP	31	192	6
TAP	31	288	6
TAP	31	288	7
TAP	32	0	5
TAP	32	96	4
TAP	32	96	5
TAP	32	192	5
TAP	32	288	4
TAP	32	288	5
TAP	33	0	3
TAP	33	96	3
TAP	33	192	2
TAP	33	288	2
TAP	34	0	1
TAP	34	96	1
XTP	34	192	0
XTP	34	192	7
STR	35	0	1
SCR	35	0	1	96	144	4
TAP	36	0	5
TAP	36	96	5
TAP	36	192	4
TAP	36	192	5
STR	37	0	5
SCR	37	0	5	96	144	0
TAP	38	0	1
TAP	38	96	1
TAP	38	192	0
TAP	38	192	1
STR	39	0	0
SCR	39	0	0	96	144	3
TAP	40	0	4
TAP	40	96	4
TAP	40	192	3
TAP	40	288	3
XTP	41	0	3
XTP	41	0	4
XTP	41	144	3
XTP	41	144	4
XST	41	288	3
SXR	41	288	3	96	432	0
XST	41	288	4
SXL	41	288	4	96	432	7
TTP	44	0	0	B	0	L1
TTP	44	0	7	B	0	L1
TTP	45	0	1	B	0	L1
TTP	45	0	6	B	0	L1
TTP	46	0	2	B	0	L1
TTP	46	0	5	B	0	L1
TTP	47	0	3	B	0	L1
TTP	47	0	4	B	0	L1
TTP	48	0	1	B	0	L1
TTP	48	192	2	B	0	L1
TTP	49	0	3	B	0	L1
TTP	49	192	4	B	0	L1
TTP	50	0	5	B	0	L1
TTP	50	192	6	B	0	L1
THO	51	0	0	192	C	0	L1
XTP	52	0	0
XTP	52	0	7
BRK	52	96	0
BRK	52	96	7
TAP	52	192	6
TAP	52	288	6
TAP	52	288	7
TAP	53	0	5
TAP	53	96	4
TAP	53	96	5
TAP	53	192	3
XTP	53	288	3
XTP	53	288	4
XTP	53	336	3
XTP	53	336	4
XTP	54	144	3
XTP	54	144	4
XTP	54	336	3
XTP	54	336	4
XTP	55	144	3
XTP	55	144	4
TAP	56	0	5
TAP	56	96	4
TAP	56	96	5
TAP	56	192	2
TAP	56	288	2
TAP	56	288	3
TAP	57	0	1
TAP	57	96	0
TAP	57	96	1
TAP	57	192	6
STR	57	288	6
SCL	57	288	6	96	144	3
STR	57	288	7
SCR	57	288	7	96	144	2
STR	59	0	0
SCL	59	0	0	96	144	5
STR	59	0	1
SCR	59	0	1	96	144	4
HLD	60	0	4	96
HLD	60	0	5	96
TAP	60	192	5
TAP	60	288	5
HLD	61	0	2	96
TAP	61	96	3
TAP	61	192	2
TAP	61	192	3
STR	61	288	2
SCL	61	288	2	96	576	4
HLD	64	0	2	96
HLD	64	0	3	96
TAP	64	192	2
TAP	64	288	2
HLD	65	0	5	96
TAP	65	96	4
TAP	65	192	3
TAP	65	192	5
TAP	65	288	3
TAP	65	288	5
STR	66	0	5
SI_	66	0	5	96	144	2
TAP	67	0	1
TAP	67	96	2
XTP	67	192	3
XTP	67	192	4
HLD	68	0	5	384
HLD	69	0	4	384
HLD	70	0	3	336

T_REC_TAP	141
T_REC_BRK	3
T_REC_XTP	29
T_REC_HLD	20
T_REC_XHO	0
T_REC_STR	14
T_REC_BST	0
T_REC_XST	2
T_REC_TTP	14
T_REC_THO	1
T_REC_SLD	16
T_REC_ALL	240
T_NUM_TAP	200
T_NUM_BRK	3
T_NUM_HLD	21
T_NUM_SLD	16
T_NUM_ALL	240
T_JUDGE_TAP	203
T_JUDGE_HLD	67
T_JUDGE_SLD	16
T_JUDGE_ALL	286
TTM_EACHPAIRS	52
TTM_SCR_TAP	100000
TTM_SCR_BRK	7800
TTM_SCR_HLD	21000
TTM_SCR_SLD	24000
TTM_SCR_ALL	152800
TTM_SCR_S	147950
TTM_SCR_SS	152500
TTM_RAT_ACV	10019

