VERSION	0.00.00	1.03.00
FES_MODE	0
BPM_DEF	125.000	125.000	125.000	125.000
MET_DEF	4	4
RESOLUTION	384
CLK_DEF	384
COMPATIBLE_CODE	MA2

BPM	0	0	125.000
MET	0	0	4	4

TAP	9	0	0
TAP	10	0	0
TAP	11	0	1
HLD	12	0	1	192
TAP	13	0	2
TAP	13	192	2
TAP	14	0	3
TAP	14	192	3
TAP	15	0	4
TAP	15	192	4
TAP	16	0	5
TAP	16	192	5
HLD	17	0	6	384
HLD	19	0	7	384
TTP	21	0	1	E	0	L1
TTP	21	0	7	E	0	L1
TTP	22	0	1	B	0	L1
TTP	22	0	6	B	0	L1
TTP	23	0	2	B	0	L1
TTP	23	0	5	B	0	L1
THO	24	0	0	384	C	1	L1
TAP	27	0	7
TAP	27	96	7
TAP	27	192	7
TAP	28	0	6
TAP	28	96	6
TAP	28	192	6
TAP	29	0	5
TAP	29	96	5
TAP	29	192	5
TAP	30	0	4
TAP	30	96	4
XTP	30	192	3
XTP	30	192	4
TAP	31	0	3
TAP	31	96	3
TAP	31	192	3
TAP	32	0	2
TAP	32	96	2
TAP	32	192	2
TAP	33	0	1
TAP	33	96	1
TAP	33	192	1
TAP	34	0	0
TAP	34	96	0
BRK	34	192	0
BRK	34	192	7
STR	35	0	0
SI_	35	0	0	96	288	3
STR	37	0	7
SI_	37	0	7	96	288	4
STR	39	0	3
SI_	39	0	3	96	288	0
STR	41	0	4
SI_	41	0	4	96	288	7
TTP	44	0	0	B	0	L1
TTP	45	0	7	B	0	L1
TTP	46	0	1	B	0	L1
TTP	47	0	6	B	0	L1
TTP	48	0	2	B	0	L1
TTP	49	0	5	B	0	L1
THO	50	0	0	384	C	1	L1
TAP	52	0	7
TAP	52	96	7
TAP	52	192	7
TAP	53	0	6
TAP	53	96	6
TAP	53	192	6
HLD	54	0	5	192
TAP	55	0	4
TAP	55	96	4
BRK	55	192	3
BRK	55	192	4
TAP	56	0	3
TAP	56	96	3
TAP	56	192	3
TAP	57	0	2
TAP	57	96	2
TAP	57	192	2
HLD	58	0	1	192
HLD	59	0	0	192
HLD	59	0	7	192
TAP	60	0	0
TAP	60	192	0
TAP	61	0	1
TAP	61	96	1
TAP	61	192	0
TAP	61	192	1
TAP	62	0	2
TAP	62	192	2
TAP	63	0	3
TAP	63	192	3
TAP	63	192	4
TAP	64	0	4
TAP	64	192	4
TAP	65	0	5
TAP	65	96	5
TAP	65	192	4
TAP	65	192	5
TAP	66	0	6
TAP	66	192	6
TAP	67	0	7
TAP	67	192	0
TAP	67	192	7
HLD	68	0	0	192
HLD	69	0	7	192
TAP	70	0	0
TAP	70	96	0
STR	70	192	0
SI_	70	192	0	96	288	4

T_REC_TAP	71
T_REC_BRK	4
T_REC_XTP	2
T_REC_HLD	9
T_REC_XHO	0
T_REC_STR	5
T_REC_BST	0
T_REC_XST	0
T_REC_TTP	12
T_REC_THO	2
T_REC_SLD	5
T_REC_ALL	110
T_NUM_TAP	90
T_NUM_BRK	4
T_NUM_HLD	11
T_NUM_SLD	5
T_NUM_ALL	110
T_JUDGE_TAP	94
T_JUDGE_HLD	60
T_JUDGE_SLD	5
T_JUDGE_ALL	159
TTM_EACHPAIRS	8
TTM_SCR_TAP	45000
TTM_SCR_BRK	10400
TTM_SCR_HLD	11000
TTM_SCR_SLD	7500
TTM_SCR_ALL	73900
TTM_SCR_S	71300
TTM_SCR_SS	73500
TTM_RAT_ACV	10054

