VERSION	0.00.00	1.03.00
FES_MODE	0
BPM_DEF	134.000	134.000	134.000	134.000
MET_DEF	4	4
RESOLUTION	384
CLK_DEF	384
COMPATIBLE_CODE	MA2

BPM	0	0	134.000
MET	0	0	4	4

TAP	2	0	2
XTP	2	0	4
XHO	2	96	2	576
TAP	2	288	3
TAP	3	96	3
TAP	3	288	3
TAP	4	0	4
XHO	4	96	5	576
TAP	4	288	4
TAP	5	96	4
TAP	5	288	4
TAP	6	0	3
XHO	6	96	2	528
TAP	6	192	4
TAP	6	288	3
TAP	6	336	3
TAP	7	48	4
TAP	7	144	5
TAP	7	240	6
TAP	7	336	7
XTP	8	48	0
XHO	8	96	0	96
HLD	8	192	6	96
TTP	8	288	0	C	1	M1
STR	9	0	1
SUR	9	0	1	96	96	3
HLD	9	0	7	96
TAP	9	192	6
TAP	9	264	3
TAP	9	264	5
TAP	9	336	2
TAP	9	336	4
HLD	10	0	1	96
TAP	10	48	2
HLD	10	96	3	96
TAP	10	144	2
HLD	10	192	1	48
TAP	10	240	2
TAP	10	288	2
TAP	10	288	3
STR	11	0	1
SUR	11	0	1	96	96	3
HLD	11	0	7	96
TAP	11	192	6
TAP	11	264	3
TAP	11	264	5
TAP	11	336	2
TAP	11	336	4
HLD	12	0	1	96
TAP	12	48	2
HLD	12	96	3	96
TAP	12	144	2
TAP	12	192	1
TAP	12	240	0
TAP	12	240	7
TAP	12	288	1
TAP	12	288	6
HLD	13	0	0	96
STR	13	0	6
SUL	13	0	6	96	96	4
TAP	13	192	1
TAP	13	264	2
TAP	13	264	4
TAP	13	336	3
TAP	13	336	5
HLD	14	0	6	96
TAP	14	48	5
HLD	14	96	4	96
TAP	14	144	5
HLD	14	192	6	48
TAP	14	240	5
TAP	14	288	4
TAP	14	288	5
HLD	15	0	0	96
STR	15	0	6
SUL	15	0	6	96	96	4
TAP	15	192	1
TAP	15	264	2
TAP	15	264	4
TAP	15	336	3
TAP	15	336	5
TAP	16	0	0
TAP	16	0	7
TAP	16	48	1
TAP	16	48	6
TAP	16	96	3
TAP	16	96	4
XTP	16	144	2
XTP	16	144	5
XTP	16	168	2
XTP	16	168	5
TTP	16	288	2	B	0	M1
TTP	16	288	2	E	0	M1
TTP	16	288	5	B	0	M1
TTP	16	288	6	E	0	M1
STR	17	0	1
SI_	17	0	1	96	48	6
STR	17	96	5
SI_	17	96	5	96	48	2
STR	17	192	7
SI_	17	192	7	96	48	3
TAP	17	288	4
HLD	17	336	4	192
TAP	18	48	7
TAP	18	96	0
HLD	18	144	1	240
TAP	18	240	3
TAP	18	288	4
TAP	18	336	5
STR	19	0	6
SI_	19	0	6	96	48	2
STR	19	96	3
SI_	19	96	3	96	48	0
TAP	19	192	4
TAP	19	240	5
TAP	19	288	6
HLD	19	336	7	192
TAP	20	48	4
TAP	20	96	3
HLD	20	144	2	144
TTP	20	288	3	B	0	M1
TTP	20	288	4	B	0	M1
TTP	20	288	4	E	0	M1
TAP	21	0	2
TAP	21	32	3
TAP	21	64	1
TAP	21	96	5
TAP	21	128	4
TAP	21	160	6
TAP	21	192	2
TAP	21	224	3
TAP	21	256	1
TAP	21	288	5
TAP	21	320	4
TAP	21	352	6
TAP	22	0	2
TAP	22	24	3
TAP	22	48	2
TAP	22	72	3
HLD	22	96	2	48
TAP	22	144	3
TAP	22	192	5
TAP	22	216	4
TAP	22	240	5
TAP	22	264	4
HLD	22	288	5	48
TAP	22	336	4
TAP	23	48	0
TAP	23	96	1
TAP	23	144	2
TAP	23	192	3
TAP	23	192	4
TAP	23	240	5
TAP	23	288	6
TAP	23	288	7
TAP	23	336	0
TAP	24	0	1
TAP	24	0	3
HLD	24	48	1	48
HLD	24	48	3	48
HLD	24	144	4	48
HLD	24	144	6	48
XTP	24	240	0
XTP	24	240	7
XTP	24	288	1
XTP	24	288	6
STR	25	0	6
SI_	25	0	6	96	48	1
STR	25	96	2
SI_	25	96	2	96	48	5
STR	25	192	0
SI_	25	192	0	96	48	4
TAP	25	240	0
TAP	25	288	3
HLD	25	336	3	192
TAP	26	48	1
TAP	26	96	0
HLD	26	144	7	240
TAP	26	240	4
TAP	26	288	3
TAP	26	336	2
STR	27	0	1
SI_	27	0	1	96	48	5
STR	27	96	4
SI_	27	96	4	96	48	7
TAP	27	192	3
TAP	27	240	2
TAP	27	288	1
HLD	27	336	0	192
TAP	28	48	3
TAP	28	96	4
HLD	28	144	5	144
TTP	28	288	3	B	0	M1
TTP	28	288	4	B	0	M1
TTP	28	288	4	E	0	M1
TAP	29	0	5
TAP	29	32	4
TAP	29	64	6
TAP	29	96	2
TAP	29	128	3
TAP	29	160	1
TAP	29	192	5
TAP	29	224	4
TAP	29	256	6
TAP	29	288	2
TAP	29	320	3
TAP	29	352	1
TAP	30	0	5
TAP	30	24	4
TAP	30	48	5
TAP	30	72	4
HLD	30	96	5	48
TAP	30	144	4
TAP	30	192	2
TAP	30	216	3
TAP	30	240	2
TAP	30	264	3
HLD	30	288	2	48
TAP	30	336	3
TAP	31	48	6
TAP	31	96	5
TAP	31	144	4
TAP	31	192	2
TAP	31	192	3
TAP	31	240	1
TAP	31	288	0
TAP	31	288	7
TAP	31	336	1
HLD	31	336	6	192
TTP	32	48	0	B	0	M1
TTP	32	48	0	E	0	M1
TTP	32	48	7	B	0	M1
TTP	32	144	3	B	0	M1
TTP	32	144	4	B	0	M1
TTP	32	144	4	E	0	M1
TAP	32	240	1
TAP	32	240	6
TAP	32	288	1
TAP	32	288	6
STR	33	0	2
SXR	33	0	2	96	192	5
HLD	33	0	3	96
TTP	33	192	4	B	0	M1
TTP	33	288	6	B	0	M1
HLD	34	0	4	96
STR	34	0	5
SXL	34	0	5	96	192	2
TTP	34	192	3	B	0	M1
TTP	34	288	1	B	0	M1
STR	35	0	2
SXR	35	0	2	96	192	5
HLD	35	0	3	96
TTP	35	192	4	B	0	M1
TTP	35	288	7	E	0	M1
TTP	36	0	0	B	0	M1
TTP	36	0	0	E	0	M1
TTP	36	96	3	B	0	M1
TTP	36	96	4	E	0	M1
TTP	36	192	0	C	0	M1
XST	37	0	2
SUR	37	0	2	96	96	4
XTP	37	96	6
XST	37	192	5
SUL	37	192	5	96	96	3
XTP	37	288	1
XTP	38	0	2
TAP	38	48	2
TAP	38	48	3
TAP	38	96	3
TAP	38	96	4
TAP	38	144	4
TAP	38	144	5
TAP	38	192	5
TAP	38	216	3
TAP	38	240	5
TAP	38	264	3
TAP	38	288	4
TAP	38	312	2
TAP	38	336	4
TAP	38	360	2
TAP	39	48	0
TAP	39	48	7
TAP	39	96	1
TAP	39	96	6
TAP	39	144	3
TAP	39	144	4
BRK	39	192	2
BRK	39	192	5
STR	39	288	0
SI_	39	288	0	96	48	5
STR	39	288	7
SCL	39	288	7	96	48	5
BST	40	0	0
SCR	40	0	0	96	48	2
BST	40	0	7
SI_	40	0	7	96	48	2
BRK	40	96	0
BRK	40	96	7
STR	40	192	5
SCL	40	192	5	96	96	2
TAP	40	240	5
STR	40	288	2
SXR	40	288	2	96	120	5
TAP	40	336	2
XTP	41	48	3
XTP	41	144	1
TAP	41	192	0
TAP	41	240	6
STR	41	288	0
SCR	41	288	0	96	48	2
STR	41	288	7
SI_	41	288	7	96	48	2
BST	42	0	0
SI_	42	0	0	96	48	5
BST	42	0	7
SCL	42	0	7	96	48	5
BRK	42	96	0
BRK	42	96	7
STR	42	192	2
SCR	42	192	2	96	96	5
TAP	42	240	2
STR	42	288	5
SXL	42	288	5	96	120	2
TAP	42	336	5
XTP	43	48	4
XTP	43	144	6
TAP	43	192	7
TAP	43	240	0
TAP	43	288	1
TAP	43	336	2
STR	44	0	3
SF_	44	0	3	96	48	7
TAP	44	0	4
XTP	44	96	3
TAP	44	192	4
TAP	44	240	5
TAP	44	288	6
STR	44	336	7
SCL	44	336	7	96	48	4
STR	45	48	7
SCR	45	48	7	96	48	2
TAP	45	144	7
TAP	45	288	0
TAP	45	288	1
HLD	45	336	2	48
HLD	45	336	7	48
TAP	46	48	6
TAP	46	48	7
TAP	46	96	6
TAP	46	96	7
HLD	46	144	0	48
HLD	46	144	5	48
TAP	46	240	0
TAP	46	240	7
TAP	46	288	1
TAP	46	288	6
TAP	47	0	3
TAP	47	0	5
TAP	47	48	2
TAP	47	48	4
TAP	47	96	0
TAP	47	96	7
XTP	47	144	1
XTP	47	144	6
XTP	47	168	1
XTP	47	168	6
STR	47	288	0
SCR	47	288	0	96	48	2
STR	47	288	7
SI_	47	288	7	96	48	2
BST	48	0	0
SI_	48	0	0	96	48	5
BST	48	0	7
SCL	48	0	7	96	48	5
BRK	48	96	0
BRK	48	96	7
STR	48	192	2
SCR	48	192	2	96	96	5
TAP	48	240	2
STR	48	288	5
SXL	48	288	5	96	120	2
TAP	48	336	5
XTP	49	48	4
XTP	49	144	6
TAP	49	192	7
TAP	49	240	1
STR	49	288	0
SI_	49	288	0	96	48	5
STR	49	288	7
SCL	49	288	7	96	48	5
BST	50	0	0
SCR	50	0	0	96	48	2
BST	50	0	7
SI_	50	0	7	96	48	2
BRK	50	96	0
BRK	50	96	7
STR	50	192	5
SCL	50	192	5	96	96	2
TAP	50	240	5
STR	50	288	2
SXR	50	288	2	96	120	5
TAP	50	336	2
XTP	51	48	3
XTP	51	144	1
TAP	51	192	0
TAP	51	240	7
TAP	51	288	6
TAP	51	336	5
TAP	52	0	3
STR	52	0	4
SF_	52	0	4	96	48	0
XTP	52	96	4
TAP	52	192	2
TAP	52	240	1
TAP	52	288	0
STR	52	336	7
SCL	52	336	7	96	48	4
STR	53	48	7
SCR	53	48	7	96	48	2
STR	53	144	7
SI_	53	144	7	96	48	3
TAP	53	240	7
TAP	53	336	1
TAP	53	336	5
TAP	54	48	0
TAP	54	48	4
TAP	54	96	1
TAP	54	96	5
TAP	54	144	2
TAP	54	144	6
TAP	54	192	2
TAP	54	192	6
XTP	54	288	3
XTP	54	288	7
XTP	54	312	2
XTP	54	312	6
XTP	54	336	1
XTP	54	336	5
XTP	54	360	0
XTP	54	360	4
XHO	55	0	3	48
XHO	55	0	7	48
HLD	55	96	1	48
HLD	55	96	5	48
HLD	55	192	3	48
HLD	55	192	6	48
TAP	55	288	5
TAP	55	312	4
TAP	55	336	5
TAP	56	0	1
TAP	56	0	6
TAP	56	48	2
TAP	56	72	3
TAP	56	96	2
TAP	56	144	1
TAP	56	144	6
TAP	56	192	5
TAP	56	216	4
TAP	56	240	5
TAP	56	288	1
TAP	56	288	6
TAP	56	336	1
TAP	56	336	6
TAP	57	0	2
TAP	57	24	4
TAP	57	48	2
TAP	57	72	4
TAP	57	96	2
TAP	57	144	1
TAP	57	144	6
TAP	57	192	5
TAP	57	216	3
TAP	57	240	5
TAP	57	264	3
TAP	57	288	5
TAP	57	336	1
TAP	57	336	6
TAP	58	0	1
TAP	58	24	3
TAP	58	48	1
TAP	58	72	3
TAP	58	96	2
TAP	58	120	4
TAP	58	144	2
TAP	58	168	4
TAP	58	192	3
TAP	58	216	5
TAP	58	240	3
TAP	58	264	5
TAP	58	288	3
TAP	58	336	1
TAP	58	336	6
TAP	59	0	2
TAP	59	24	3
HLD	59	48	1	48
TAP	59	96	5
TAP	59	120	4
HLD	59	144	6	48
TAP	59	192	2
TAP	59	216	3
HLD	59	240	1	48
TAP	59	288	5
TAP	59	312	4
TAP	59	336	6
HLD	60	0	2	48
HLD	60	0	4	48
HLD	60	96	3	48
HLD	60	96	5	48
HLD	60	192	1	48
HLD	60	192	4	48
TAP	60	288	0
TAP	60	336	0
HLD	60	360	7	72
TAP	61	24	4
TAP	61	48	6
HLD	61	72	0	72
TAP	61	120	3
TAP	61	144	1
HLD	61	168	7	72
TAP	61	216	4
TAP	61	240	6
HLD	61	264	0	72
TAP	61	336	3
TAP	61	360	1
TAP	62	0	7
TAP	62	48	4
TAP	62	48	6
TAP	62	96	1
TAP	62	96	3
XTP	62	144	2
XTP	62	144	5
XST	62	168	2
SCL	62	168	2	96	360	5
XTP	62	168	5
THO	62	288	0	96	C	1	M1
XHO	64	0	2	768
TTP	64	96	0	C	0	M1
TTP	64	192	0	C	0	M1
TTP	64	288	0	C	0	M1
TTP	65	0	0	C	0	M1
TTP	65	96	0	C	0	M1
TTP	65	192	0	C	0	M1
TTP	65	288	0	C	0	M1
XHO	66	0	5	768
TTP	66	96	0	C	0	M1
TTP	66	192	0	C	0	M1
TTP	66	288	0	C	0	M1
TTP	67	0	0	C	0	M1
TTP	67	96	0	C	0	M1
TTP	67	192	0	C	0	M1
TTP	67	288	0	C	0	M1
XHO	68	0	2	384
TTP	68	96	3	B	0	M1
TTP	68	192	0	C	0	M1
TTP	68	288	7	B	0	M1
XHO	69	0	5	288
TTP	69	96	4	B	0	M1
TTP	69	192	0	C	0	M1
TTP	69	288	0	B	0	M1
HLD	70	0	5	48
HLD	70	96	2	48
TAP	70	96	3
TAP	70	192	3
HLD	70	192	6	48
HLD	70	288	1	48
TAP	70	288	4
TAP	71	0	0
TAP	71	0	7
TAP	71	48	1
TAP	71	48	6
TAP	71	96	3
TAP	71	96	4
XTP	71	144	1
XTP	71	144	6
XTP	71	168	1
XTP	71	168	6
STR	71	288	0
SI_	71	288	0	96	48	5
STR	71	288	7
SCL	71	288	7	96	48	5
BST	72	0	0
SCR	72	0	0	96	48	2
BST	72	0	7
SI_	72	0	7	96	48	2
BRK	72	96	0
BRK	72	96	7
STR	72	192	5
SCL	72	192	5	96	96	2
TAP	72	240	5
STR	72	288	2
SXR	72	288	2	96	120	5
TAP	72	336	2
XTP	73	48	3
XTP	73	144	1
TAP	73	192	0
TAP	73	240	6
STR	73	288	0
SCR	73	288	0	96	48	2
STR	73	288	7
SI_	73	288	7	96	48	2
BST	74	0	0
SI_	74	0	0	96	48	5
BST	74	0	7
SCL	74	0	7	96	48	5
BRK	74	96	0
BRK	74	96	7
STR	74	192	2
SCR	74	192	2	96	96	5
TAP	74	240	2
STR	74	288	5
SXL	74	288	5	96	120	2
TAP	74	336	5
XTP	75	48	4
XTP	75	144	6
TAP	75	192	7
TAP	75	240	0
TAP	75	288	1
TAP	75	336	2
STR	76	0	3
SF_	76	0	3	96	48	7
TAP	76	0	4
XTP	76	96	3
TAP	76	192	5
TAP	76	240	6
TAP	76	288	7
STR	76	336	0
SCR	76	336	0	96	48	3
STR	77	48	0
SCL	77	48	0	96	48	5
STR	77	144	0
SI_	77	144	0	96	48	4
TAP	77	240	0
TAP	77	336	2
TAP	77	336	6
TAP	78	48	3
TAP	78	48	5
TAP	78	96	2
TAP	78	96	4
TAP	78	144	1
TAP	78	144	6
STR	78	192	0
SI_	78	192	0	96	48	4
STR	78	192	7
SI_	78	192	7	96	48	3
TAP	78	240	1
TAP	78	240	6
XTP	78	288	0
XTP	78	288	7
TTP	79	0	0	C	1	M1
TTP	79	0	1	B	0	M1
TTP	79	0	2	B	0	M1
TTP	79	0	5	B	0	M1
TTP	79	0	6	B	0	M1

T_REC_TAP	330
T_REC_BRK	14
T_REC_XTP	49
T_REC_HLD	58
T_REC_XHO	10
T_REC_STR	54
T_REC_BST	12
T_REC_XST	3
T_REC_TTP	53
T_REC_THO	1
T_REC_SLD	69
T_REC_ALL	653
T_NUM_TAP	489
T_NUM_BRK	26
T_NUM_HLD	69
T_NUM_SLD	69
T_NUM_ALL	653
T_JUDGE_TAP	515
T_JUDGE_HLD	190
T_JUDGE_SLD	69
T_JUDGE_ALL	774
TTM_EACHPAIRS	118
TTM_SCR_TAP	244500
TTM_SCR_BRK	67600
TTM_SCR_HLD	69000
TTM_SCR_SLD	103500
TTM_SCR_ALL	484600
TTM_SCR_S	467550
TTM_SCR_SS	482000
TTM_RAT_ACV	10053

