VERSION	0.00.00	1.03.00
FES_MODE	0
BPM_DEF	134.000	134.000	134.000	134.000
MET_DEF	4	4
RESOLUTION	384
CLK_DEF	384
COMPATIBLE_CODE	MA2

BPM	0	0	134.000
MET	0	0	4	4

HLD	2	0	3	672
TAP	2	96	4
TAP	2	288	4
TAP	3	96	5
TAP	3	288	4
HLD	4	0	4	672
TAP	4	96	3
TAP	4	288	3
TAP	5	96	2
TAP	5	288	3
HLD	6	0	5	288
TAP	6	96	4
TAP	6	288	3
HLD	7	0	2	288
TAP	7	96	3
TAP	7	288	4
TAP	8	0	3
TAP	8	96	3
TAP	8	96	4
TAP	8	192	2
STR	8	192	5
SI_	8	192	5	96	48	3
TAP	9	0	2
TAP	9	96	1
TAP	9	192	1
TAP	9	192	4
TAP	9	288	2
TAP	9	288	3
TAP	10	0	5
TAP	10	96	6
TAP	10	192	3
TAP	10	192	6
TAP	10	288	4
TAP	10	288	5
TAP	11	0	2
TAP	11	96	1
TAP	11	192	1
TAP	11	192	4
TAP	11	288	2
TAP	11	288	3
TAP	12	0	3
TAP	12	0	5
TAP	12	96	2
TAP	12	96	4
TAP	12	192	3
TAP	12	240	3
TAP	12	288	4
TAP	13	0	2
TAP	13	96	1
TAP	13	192	1
TAP	13	192	3
TAP	13	288	2
TAP	13	288	4
TAP	14	0	5
TAP	14	96	6
TAP	14	192	4
TAP	14	192	6
TAP	14	288	3
TAP	14	288	5
HLD	15	0	1	96
TAP	15	96	0
HLD	15	192	6	96
TAP	15	288	5
TAP	16	0	3
TAP	16	48	3
TAP	16	96	4
XTP	16	144	4
TAP	16	240	2
TAP	16	240	5
TAP	16	288	2
TAP	16	288	5
TAP	17	0	4
HLD	17	0	5	192
TAP	17	96	4
TAP	17	192	4
TAP	17	288	6
HLD	17	336	6	192
TAP	18	48	4
TAP	18	144	4
TAP	18	240	4
TAP	18	240	5
TAP	18	288	4
TAP	18	288	5
HLD	19	0	2	192
TAP	19	0	3
TAP	19	96	3
TAP	19	192	3
TAP	19	288	1
HLD	19	336	1	192
TAP	20	48	3
XTP	20	144	3
TAP	20	240	0
TAP	20	288	0
HLD	21	0	1	96
HLD	21	96	2	96
TAP	21	192	3
TAP	21	288	2
TAP	21	288	4
HLD	22	0	6	96
HLD	22	96	5	96
TAP	22	192	4
TAP	22	288	3
TAP	22	288	4
TAP	23	0	2
TAP	23	96	1
TAP	23	96	3
TAP	23	192	4
TAP	23	288	3
TAP	23	288	5
TAP	24	0	2
TAP	24	0	6
HLD	24	48	2	192
HLD	24	48	6	192
XTP	24	288	2
XTP	24	288	6
TAP	25	0	0
HLD	25	0	1	192
TAP	25	96	0
TAP	25	192	0
TAP	25	288	2
HLD	25	336	2	192
TAP	26	48	3
TAP	26	144	3
TAP	26	240	3
TAP	26	240	5
TAP	26	288	3
TAP	26	288	5
HLD	27	0	6	192
TAP	27	0	7
TAP	27	96	7
TAP	27	192	7
TAP	27	288	5
HLD	27	336	5	192
TAP	28	48	4
XTP	28	144	4
TAP	28	240	3
TAP	28	240	4
TAP	28	288	3
TAP	28	288	4
HLD	29	0	2	96
HLD	29	96	1	96
TAP	29	192	0
TAP	29	288	0
TAP	29	288	7
HLD	30	0	6	96
HLD	30	96	5	96
TAP	30	192	4
TAP	30	288	3
TAP	30	288	4
TAP	31	0	2
TAP	31	96	0
TAP	31	192	6
TAP	31	288	2
TAP	31	288	5
HLD	31	336	2	192
HLD	31	336	5	96
TAP	32	240	4
XTP	32	288	3
STR	33	0	5
SCL	33	0	5	96	96	2
TAP	33	192	1
TAP	33	288	1
STR	34	0	2
SCR	34	0	2	96	96	5
TAP	34	192	6
TAP	34	288	6
STR	35	0	6
SCR	35	0	6	96	96	1
TAP	35	192	2
TAP	35	288	2
THO	36	0	0	192	C	0	M1
TAP	37	0	6
TAP	37	0	7
TAP	37	96	4
TAP	37	96	5
TAP	37	192	2
TAP	37	192	3
TAP	37	288	0
STR	37	288	1
SCR	37	288	1	96	288	6
XTP	38	0	7
TAP	39	48	0
TAP	39	96	0
TAP	39	96	7
TAP	39	192	1
TAP	39	192	6
BRK	39	288	3
BRK	39	288	4
STR	40	0	0
SI_	40	0	0	96	48	4
STR	40	0	1
SI_	40	0	1	96	48	4
STR	40	192	0
SI_	40	192	0	96	48	4
STR	40	192	1
SI_	40	192	1	96	48	4
TAP	41	0	3
TAP	41	0	5
TAP	41	96	6
TAP	41	192	2
TAP	41	240	2
TAP	41	288	1
TAP	41	288	3
STR	42	0	6
SI_	42	0	6	96	48	3
STR	42	0	7
SI_	42	0	7	96	48	3
STR	42	192	6
SI_	42	192	6	96	48	3
STR	42	192	7
SI_	42	192	7	96	48	3
TAP	43	0	2
TAP	43	0	4
TAP	43	96	1
TAP	43	192	5
TAP	43	240	5
TAP	43	288	4
TAP	43	288	6
TAP	44	0	4
HLD	44	0	5	96
TAP	44	96	1
HLD	44	192	2	96
TAP	44	192	3
TAP	44	288	6
TAP	45	0	4
HLD	45	0	5	96
STR	45	96	0
SCL	45	96	0	96	96	5
SCR	45	96	0	96	96	3
HLD	46	0	4	96
HLD	46	96	5	96
HLD	46	192	6	96
TAP	46	288	7
TAP	47	0	0
TAP	47	48	0
TAP	47	96	7
XTP	47	144	7
TAP	47	240	2
TAP	47	240	5
TAP	47	288	2
TAP	47	288	5
STR	48	0	6
SI_	48	0	6	96	48	3
STR	48	0	7
SI_	48	0	7	96	48	3
STR	48	192	6
SI_	48	192	6	96	48	3
STR	48	192	7
SI_	48	192	7	96	48	3
TAP	49	0	2
TAP	49	0	4
TAP	49	96	1
TAP	49	96	3
TAP	49	192	5
TAP	49	240	5
TAP	49	288	4
TAP	49	288	6
STR	50	0	0
SI_	50	0	0	96	48	4
STR	50	0	1
SI_	50	0	1	96	48	4
STR	50	192	0
SI_	50	192	0	96	48	4
STR	50	192	1
SI_	50	192	1	96	48	4
TAP	51	0	3
TAP	51	0	5
TAP	51	96	4
TAP	51	96	6
TAP	51	192	2
TAP	51	240	2
TAP	51	288	1
TAP	51	288	3
HLD	52	0	1	96
HLD	52	96	3	96
HLD	52	192	4	96
HLD	52	288	6	96
HLD	53	0	4	96
HLD	53	96	3	96
HLD	53	192	1	96
STR	53	288	7
SCL	53	288	7	96	144	2
TAP	54	240	1
TAP	54	240	6
BRK	54	288	1
BRK	54	288	6
STR	55	0	0
SI_	55	0	0	96	96	3
STR	55	192	4
SI_	55	192	4	96	96	7
TTP	56	0	0	E	0	M1
TTP	56	96	0	C	0	M1
TTP	56	192	5	E	0	M1
TTP	56	288	5	B	0	M1
TTP	56	288	6	B	0	M1
STR	57	0	3
SI_	57	0	3	96	96	0
STR	57	192	7
SI_	57	192	7	96	96	4
TTP	58	0	4	E	0	M1
TTP	58	96	0	C	0	M1
TTP	58	192	6	B	0	M1
TTP	58	192	7	B	0	M1
TTP	58	192	7	E	0	M1
STR	59	0	1
SI_	59	0	1	96	96	4
STR	59	192	5
SI_	59	192	5	96	96	0
TTP	60	0	1	E	0	M1
TTP	60	96	0	C	0	M1
TTP	60	192	5	E	0	M1
XTP	60	288	3
XTP	60	288	6
TAP	61	0	3
TAP	61	96	1
TAP	61	96	5
TAP	61	192	4
TAP	61	288	2
STR	61	288	6
SCR	61	288	6	96	192	3
XTP	62	0	0
TTP	62	288	4	E	0	M1
TTP	63	0	0	C	1	M1
HLD	64	0	3	192
HLD	64	0	4	576
HLD	65	0	3	960
HLD	66	0	4	192
HLD	67	0	4	192
HLD	68	0	5	192
TAP	68	96	3
TAP	68	192	4
TAP	68	288	6
HLD	69	0	2	192
TAP	69	96	4
TAP	69	192	3
TAP	69	288	1
TAP	70	0	0
HLD	70	0	7	384
THO	70	192	0	192	C	1	M1
BRK	71	288	0
STR	72	0	6
SI_	72	0	6	96	48	2
STR	72	0	7
SI_	72	0	7	96	48	2
STR	72	192	6
SI_	72	192	6	96	48	2
STR	72	192	7
SI_	72	192	7	96	48	2
TAP	73	0	1
TAP	73	0	3
TAP	73	96	0
TAP	73	96	7
TAP	73	192	5
TAP	73	240	5
TAP	73	288	4
TAP	73	288	6
BST	74	0	0
SI_	74	0	0	96	48	5
BST	74	0	1
SI_	74	0	1	96	48	5
STR	74	192	0
SI_	74	192	0	96	48	5
STR	74	192	1
SI_	74	192	1	96	48	5
TAP	75	0	4
TAP	75	0	6
TAP	75	96	0
TAP	75	96	7
TAP	75	192	2
TAP	75	240	2
TAP	75	288	1
TAP	75	288	3
HLD	76	0	0	96
TAP	76	0	7
HLD	76	96	2	96
HLD	76	192	4	96
HLD	76	288	6	96
HLD	77	0	7	96
HLD	77	96	5	96
HLD	77	192	3	96
HLD	77	288	1	96
BST	78	0	0
SF_	78	0	0	96	96	4
XTP	78	288	2
XTP	78	288	6
TTP	79	0	0	C	1	M1
TTP	79	0	1	B	0	M1
TTP	79	0	5	B	0	M1

T_REC_TAP	216
T_REC_BRK	5
T_REC_XTP	13
T_REC_HLD	55
T_REC_XHO	0
T_REC_STR	36
T_REC_BST	3
T_REC_XST	0
T_REC_TTP	18
T_REC_THO	2
T_REC_SLD	40
T_REC_ALL	388
T_NUM_TAP	283
T_NUM_BRK	8
T_NUM_HLD	57
T_NUM_SLD	40
T_NUM_ALL	388
T_JUDGE_TAP	291
T_JUDGE_HLD	216
T_JUDGE_SLD	40
T_JUDGE_ALL	547
TTM_EACHPAIRS	86
TTM_SCR_TAP	141500
TTM_SCR_BRK	20800
TTM_SCR_HLD	57000
TTM_SCR_SLD	60000
TTM_SCR_ALL	279300
TTM_SCR_S	270150
TTM_SCR_SS	278500
TTM_RAT_ACV	10028

