VERSION	0.00.00	1.03.00
FES_MODE	0
BPM_DEF	134.000	134.000	134.000	134.000
MET_DEF	4	4
RESOLUTION	384
CLK_DEF	384
COMPATIBLE_CODE	MA2

BPM	0	0	134.000
MET	0	0	4	4

HLD	2	0	2	384
HLD	3	0	3	384
HLD	4	0	4	384
TAP	5	0	5
HLD	6	0	5	384
HLD	7	0	4	384
TAP	8	0	3
XTP	8	192	3
XTP	8	192	4
TAP	9	0	2
TAP	9	96	2
TAP	9	192	2
TAP	9	192	3
TAP	10	0	5
TAP	10	96	5
TAP	10	192	4
TAP	10	192	5
TAP	11	0	2
TAP	11	96	2
TAP	11	192	3
TAP	11	288	3
TAP	12	0	4
TAP	12	96	4
TAP	12	192	3
TAP	12	192	5
TAP	13	0	6
TAP	13	96	6
TAP	13	192	6
TAP	13	192	7
TAP	14	0	1
TAP	14	96	1
TAP	14	192	0
TAP	14	192	1
TAP	15	0	2
TAP	15	96	2
TAP	15	192	3
TAP	15	288	3
TAP	16	0	3
TAP	16	0	4
XTP	16	96	2
XTP	16	96	5
XTP	16	144	2
XTP	16	144	5
TAP	17	0	2
TAP	17	96	2
TAP	17	192	3
TAP	18	0	5
TAP	18	96	5
TAP	18	192	4
TAP	19	0	2
TAP	19	96	2
TAP	19	192	3
TAP	20	0	5
TAP	20	96	4
TAP	20	192	3
TAP	20	192	5
HLD	21	0	6	192
HLD	21	192	7	192
HLD	22	0	0	192
TAP	22	192	1
TAP	23	0	1
TAP	23	96	1
TAP	23	192	0
TAP	23	288	7
XHO	24	0	0	192
XHO	24	0	6	192
XTP	25	0	6
XTP	25	96	6
TAP	25	192	5
TAP	26	0	3
TAP	26	96	3
TAP	26	192	2
TAP	27	0	1
TAP	27	96	1
TAP	27	192	0
TAP	28	0	7
TAP	28	96	6
TAP	28	192	0
TAP	28	192	6
HLD	29	0	5	192
HLD	29	192	4	192
HLD	30	0	3	192
TAP	30	192	2
TAP	31	0	1
TAP	31	96	1
TAP	31	192	0
XTP	31	288	0
XTP	31	288	7
XHO	32	0	1	192
XHO	32	0	6	192
TTP	33	0	3	B	0	L1
TTP	33	0	4	B	0	L1
TTP	33	192	2	B	0	L1
TTP	33	192	5	B	0	L1
TTP	34	0	1	B	0	L1
TTP	34	0	6	B	0	L1
TTP	35	0	2	B	0	L1
TTP	35	0	5	B	0	L1
TTP	35	192	1	B	0	L1
TTP	35	192	6	B	0	L1
TTP	36	0	0	B	0	L1
TTP	36	0	7	B	0	L1
TTP	37	0	2	E	0	L1
TTP	37	96	2	B	0	L1
TTP	37	192	3	B	0	L1
TTP	38	0	6	E	0	L1
TTP	38	96	5	B	0	L1
TTP	38	192	4	B	0	L1
THO	39	0	0	192	C	1	L1
XTP	40	0	0
XTP	40	96	0
TAP	40	192	1
TAP	40	288	2
TAP	41	0	2
TAP	41	0	3
TAP	41	96	2
TAP	41	96	3
TAP	41	192	1
TAP	41	192	4
TAP	42	0	4
TAP	42	96	4
TAP	42	192	5
TAP	42	288	6
TAP	43	0	0
TAP	43	0	7
TAP	43	96	0
TAP	43	96	7
TAP	43	192	1
TAP	43	192	6
TAP	44	0	1
TAP	44	96	0
TAP	44	96	1
TAP	44	192	2
TAP	44	192	7
TAP	45	0	6
TAP	45	96	6
TAP	45	96	7
TAP	45	192	0
TAP	45	192	5
TAP	46	0	5
TAP	46	96	5
TAP	46	192	6
TAP	46	288	7
TAP	47	0	0
TAP	47	0	7
XTP	47	96	1
XTP	47	96	6
XTP	47	144	1
XTP	47	144	6
XTP	48	0	7
XTP	48	96	7
TAP	48	192	6
TAP	48	288	5
TAP	49	0	4
TAP	49	0	5
TAP	49	96	4
TAP	49	96	5
TAP	49	192	3
TAP	49	192	6
TAP	50	0	3
TAP	50	96	3
TAP	50	192	2
TAP	50	288	1
TAP	51	0	0
TAP	51	0	1
TAP	51	96	0
TAP	51	96	1
TAP	51	192	2
TAP	51	192	7
HLD	52	0	1	192
HLD	52	192	2	192
HLD	53	0	3	192
TAP	53	192	4
TAP	54	0	3
TAP	54	0	4
TAP	54	96	2
TAP	54	96	5
XTP	54	192	1
XTP	54	192	6
STR	55	0	0
SI_	55	0	0	96	192	3
STR	56	0	4
SI_	56	0	4	96	192	7
STR	57	0	0
SI_	57	0	0	96	192	4
TAP	58	0	5
TAP	58	96	5
TAP	58	192	5
STR	59	0	6
SI_	59	0	6	96	192	2
STR	60	0	1
SI_	60	0	1	96	192	5
STR	61	0	6
SI_	61	0	6	96	192	3
TAP	62	0	2
TAP	62	96	1
BRK	62	192	0
BRK	62	192	7
TTP	64	0	3	B	0	L1
TTP	64	192	2	B	0	L1
TTP	65	0	1	B	0	L1
TTP	65	0	2	E	0	L1
TTP	66	0	4	B	0	L1
TTP	66	192	5	B	0	L1
TTP	67	0	6	B	0	L1
TTP	67	0	6	E	0	L1
TTP	68	0	4	B	0	L1
TTP	68	0	5	B	0	L1
TTP	68	192	2	B	0	L1
TTP	68	192	3	B	0	L1
TTP	69	0	6	B	0	L1
TTP	69	0	6	E	0	L1
TTP	69	192	1	B	0	L1
TTP	69	192	2	E	0	L1
THO	70	0	0	384	C	1	L1
XTP	71	288	0
XTP	71	288	7
XTP	72	0	1
XTP	72	0	6
XTP	72	96	1
XTP	72	96	6
TAP	72	192	2
TAP	72	288	3
TAP	73	0	4
TAP	73	0	5
TAP	73	96	4
TAP	73	96	5
TAP	73	192	3
TAP	73	192	6
XTP	74	0	2
XTP	74	0	5
XTP	74	96	2
XTP	74	96	5
TAP	74	192	1
TAP	74	288	0
TAP	75	0	6
TAP	75	0	7
TAP	75	96	6
TAP	75	96	7
TAP	75	192	0
TAP	75	192	5
HLD	76	0	1	96
TAP	76	96	0
TAP	76	192	2
TAP	76	192	7
HLD	77	0	6	96
TAP	77	96	7
TAP	77	192	0
TAP	77	192	5
TAP	78	0	0
TAP	78	0	7
TAP	78	96	1
TAP	78	96	6
TAP	78	192	2
TAP	78	192	5
TAP	78	288	3
TAP	78	288	4
BRK	79	0	1
BRK	79	0	6

T_REC_TAP	157
T_REC_BRK	4
T_REC_XTP	30
T_REC_HLD	16
T_REC_XHO	4
T_REC_STR	6
T_REC_BST	0
T_REC_XST	0
T_REC_TTP	34
T_REC_THO	2
T_REC_SLD	6
T_REC_ALL	259
T_NUM_TAP	227
T_NUM_BRK	4
T_NUM_HLD	22
T_NUM_SLD	6
T_NUM_ALL	259
T_JUDGE_TAP	231
T_JUDGE_HLD	108
T_JUDGE_SLD	6
T_JUDGE_ALL	345
TTM_EACHPAIRS	55
TTM_SCR_TAP	113500
TTM_SCR_BRK	10400
TTM_SCR_HLD	22000
TTM_SCR_SLD	9000
TTM_SCR_ALL	154900
TTM_SCR_S	149900
TTM_SCR_SS	154500
TTM_RAT_ACV	10025

