VERSION	0.00.00	1.03.00
FES_MODE	0
BPM_DEF	134.000	134.000	134.000	134.000
MET_DEF	4	4
RESOLUTION	384
CLK_DEF	384
COMPATIBLE_CODE	MA2

BPM	0	0	134.000
MET	0	0	4	4

HLD	2	0	3	384
HLD	4	0	3	384
HLD	6	0	4	384
HLD	8	0	3	192
HLD	8	0	4	192
TAP	9	0	3
TAP	9	192	3
TAP	10	0	3
TAP	11	0	2
TAP	11	192	2
TAP	12	0	2
TAP	13	0	1
TAP	13	192	1
TAP	14	0	1
TAP	15	0	0
TAP	15	192	0
BRK	16	0	0
BRK	16	0	7
TAP	17	0	7
TAP	17	192	7
TAP	18	0	7
TAP	19	0	6
TAP	19	192	6
TAP	20	0	6
HLD	21	0	5	384
TAP	23	0	4
TAP	23	192	4
BRK	24	0	3
BRK	24	0	4
TAP	25	0	3
TAP	25	192	3
TAP	26	0	3
TAP	27	0	2
TAP	27	192	2
TAP	28	0	2
HLD	29	0	1	384
TAP	31	0	0
TAP	31	192	0
XTP	32	0	0
XTP	32	0	7
TTP	33	0	0	B	0	L1
TTP	34	0	7	B	0	L1
TTP	35	0	1	B	0	L1
TTP	36	0	6	B	0	L1
TTP	37	0	0	B	0	L1
TTP	37	0	7	B	0	L1
THO	38	0	0	384	C	1	L1
TAP	40	0	0
TAP	40	96	0
TAP	40	192	0
TAP	41	0	1
TAP	41	96	1
TAP	41	192	1
TAP	42	0	2
TAP	42	96	2
TAP	42	192	2
TAP	43	0	3
TAP	43	96	3
TAP	43	192	3
HLD	44	0	4	192
HLD	45	0	3	192
TAP	46	0	4
TAP	46	96	4
TAP	46	192	4
XTP	47	0	4
XTP	47	0	5
TAP	48	0	7
TAP	48	96	7
TAP	48	192	7
TAP	49	0	6
TAP	49	96	6
TAP	49	192	6
TAP	50	0	5
TAP	50	96	5
TAP	50	192	5
TAP	51	0	4
TAP	51	96	4
TAP	51	192	4
HLD	52	0	3	192
HLD	53	0	4	192
TAP	54	0	3
TAP	54	96	3
BRK	54	192	3
BRK	54	192	4
TAP	55	0	2
TAP	55	192	2
TAP	56	0	1
TAP	56	96	1
TAP	56	192	1
TAP	57	0	0
TAP	57	192	0
TAP	58	0	0
TAP	58	0	7
TAP	58	192	0
TAP	58	192	7
STR	59	0	7
SI_	59	0	7	96	288	3
TAP	61	0	3
TAP	61	192	3
BRK	62	0	3
BRK	62	0	4
TTP	64	0	4	B	0	L1
TTP	65	0	5	B	0	L1
TTP	66	0	6	B	0	L1
TTP	67	0	0	B	0	L1
TTP	67	0	7	B	0	L1
TTP	68	0	1	B	0	L1
TTP	69	0	2	B	0	L1
THO	70	0	0	384	C	1	L1
TAP	72	0	7
TAP	72	96	7
TAP	72	192	7
TAP	73	0	6
TAP	73	96	6
TAP	73	192	6
TAP	73	192	7
TAP	74	0	5
TAP	74	96	5
TAP	74	192	5
TAP	75	0	4
TAP	75	96	4
TAP	75	192	3
TAP	75	192	4
HLD	76	0	2	192
HLD	76	0	3	192
HLD	77	0	4	192
HLD	77	0	5	192
TAP	78	0	3
TAP	78	96	3
XTP	78	192	3
XTP	78	192	4
STR	79	0	3
SI_	79	0	3	96	288	0
STR	79	0	4
SI_	79	0	4	96	288	7

T_REC_TAP	85
T_REC_BRK	8
T_REC_XTP	6
T_REC_HLD	15
T_REC_XHO	0
T_REC_STR	3
T_REC_BST	0
T_REC_XST	0
T_REC_TTP	13
T_REC_THO	2
T_REC_SLD	3
T_REC_ALL	135
T_NUM_TAP	107
T_NUM_BRK	8
T_NUM_HLD	17
T_NUM_SLD	3
T_NUM_ALL	135
T_JUDGE_TAP	115
T_JUDGE_HLD	96
T_JUDGE_SLD	3
T_JUDGE_ALL	214
TTM_EACHPAIRS	15
TTM_SCR_TAP	53500
TTM_SCR_BRK	20800
TTM_SCR_HLD	17000
TTM_SCR_SLD	4500
TTM_SCR_ALL	95800
TTM_SCR_S	92150
TTM_SCR_SS	95000
TTM_RAT_ACV	10084

