VERSION	0.00.00	1.03.00
FES_MODE	0
BPM_DEF	178.000	178.000	178.000	178.000
MET_DEF	4	4
RESOLUTION	384
CLK_DEF	384
COMPATIBLE_CODE	MA2

BPM	0	0	178.000
MET	0	0	4	4

TAP	2	0	2
TAP	2	48	4
TAP	2	96	4
TAP	2	144	1
TAP	2	192	5
STR	2	240	5
SI_	2	240	5	96	48	3
TAP	2	336	3
TAP	3	48	1
TAP	3	96	4
HLD	3	144	3	96
TAP	3	144	5
TAP	3	240	6
TAP	3	288	2
TAP	3	336	2
TAP	4	0	4
TAP	4	48	3
TAP	4	96	3
TAP	4	144	5
TAP	4	192	2
STR	4	240	2
SI_	4	240	2	96	48	4
TAP	4	336	6
TAP	5	48	5
TAP	5	96	5
STR	5	144	0
SI_	5	144	0	96	48	3
TAP	5	240	7
TAP	5	288	7
TAP	6	0	6
TAP	6	48	3
TAP	6	96	3
TAP	6	144	5
TAP	6	192	2
STR	6	240	2
SI_	6	240	2	96	48	4
TAP	6	336	4
TAP	7	48	6
TAP	7	96	3
TAP	7	144	2
HLD	7	144	4	96
TAP	7	240	1
TAP	7	288	5
TAP	7	336	5
TAP	8	0	0
TAP	8	48	4
TAP	8	96	4
TAP	8	144	1
TAP	8	192	6
STR	8	240	6
SI_	8	240	6	96	48	3
HLD	8	336	2	96
HLD	9	48	1	96
TAP	9	144	0
TAP	9	240	6
TAP	9	240	7
TAP	9	288	6
TAP	9	288	7
BRK	10	0	0
TAP	10	48	6
TAP	10	96	5
TAP	10	144	2
TAP	10	192	5
HLD	10	240	1	96
STR	10	240	4
SI_	10	240	4	96	48	2
TAP	11	48	0
TAP	11	96	7
HLD	11	144	6	96
TAP	11	240	7
TAP	11	288	0
TAP	11	336	1
TAP	12	0	5
TAP	12	48	1
TAP	12	96	2
TAP	12	144	6
TAP	12	192	2
STR	12	240	3
SI_	12	240	3	96	48	7
HLD	12	240	7	96
TAP	13	48	0
TAP	13	96	6
TAP	13	144	3
STR	13	144	5
SLL	13	144	5	96	96	7
TAP	13	240	1
TAP	13	288	1
TAP	14	0	2
TAP	14	48	6
TAP	14	96	5
TAP	14	144	1
TAP	14	192	5
HLD	14	240	0	96
STR	14	240	4
SI_	14	240	4	96	48	7
TAP	15	48	1
TAP	15	96	2
HLD	15	144	3	96
TAP	15	144	5
TAP	15	240	6
TAP	15	288	5
TAP	15	336	2
TAP	15	336	4
TAP	16	0	1
TAP	16	48	6
TAP	16	96	5
TAP	16	144	2
TAP	16	192	4
HLD	16	240	3	96
STR	16	240	5
SUL	16	240	5	96	240	2
TAP	17	48	3
TAP	17	144	1
TAP	17	240	1
TAP	17	288	1
TAP	17	288	7
HLD	18	0	0	72
HLD	18	72	6	72
STR	18	144	4
SI_	18	144	4	96	48	0
TAP	18	240	5
TAP	18	288	5
HLD	19	0	7	72
HLD	19	72	1	72
STR	19	144	3
SI_	19	144	3	96	48	7
TAP	19	240	2
TAP	19	288	2
HLD	20	0	0	72
HLD	20	72	6	72
STR	20	144	4
SI_	20	144	4	96	48	0
TAP	20	240	5
TAP	20	288	5
STR	21	0	6
SI_	21	0	6	96	48	3
STR	21	96	0
SI_	21	96	0	96	48	4
STR	21	192	7
SI_	21	192	7	96	48	3
XTP	21	288	1
HLD	22	0	0	72
HLD	22	72	6	72
STR	22	144	4
SI_	22	144	4	96	48	0
TAP	22	240	6
TAP	22	288	3
HLD	23	0	7	72
HLD	23	72	1	72
STR	23	144	3
SI_	23	144	3	96	48	7
TAP	23	240	1
TAP	23	288	4
HLD	24	0	0	72
HLD	24	72	6	72
STR	24	144	4
SI_	24	144	4	96	48	0
TAP	24	240	6
STR	24	288	3
SXR	24	288	3	96	192	7
HLD	25	0	0	144
TAP	25	240	0
TAP	25	288	0
TAP	25	288	6
HLD	26	0	5	72
TAP	26	72	4
STR	26	96	6
SI_	26	96	6	96	48	3
STR	26	144	3
SUR	26	144	3	96	48	0
TAP	26	240	1
TAP	26	288	2
HLD	27	0	2	72
TAP	27	72	3
STR	27	96	1
SI_	27	96	1	96	48	4
STR	27	144	4
SUL	27	144	4	96	48	7
TAP	27	240	6
TAP	27	288	5
HLD	28	0	5	72
TAP	28	72	4
STR	28	96	6
SI_	28	96	6	96	48	3
STR	28	144	3
SUR	28	144	3	96	48	0
TAP	28	240	1
TAP	28	288	2
STR	29	0	1
SI_	29	0	1	96	48	4
STR	29	96	5
SI_	29	96	5	96	48	0
STR	29	192	2
SI_	29	192	2	96	48	7
BRK	29	288	6
HLD	30	0	5	72
TAP	30	72	4
STR	30	96	6
SI_	30	96	6	96	48	2
STR	30	144	2
SUR	30	144	2	96	48	7
TAP	30	240	0
TAP	30	288	1
HLD	31	0	2	72
TAP	31	72	3
STR	31	96	1
SI_	31	96	1	96	48	5
STR	31	144	5
SUL	31	144	5	96	48	0
TAP	31	240	7
TAP	31	288	6
HLD	32	0	5	72
TAP	32	72	4
TAP	32	96	6
TAP	32	144	1
STR	32	192	1
SI_	32	192	1	96	48	5
TAP	32	288	1
TAP	32	288	4
STR	33	0	7
SI_	33	0	7	96	48	3
TAP	33	96	3
TAP	33	96	7
BRK	33	192	1
BRK	33	192	5
TAP	33	288	3
TAP	33	288	4
TAP	34	0	6
TAP	34	48	2
TAP	34	72	3
TAP	34	96	2
TAP	34	120	1
TAP	34	144	2
TAP	34	192	6
TAP	34	240	5
TAP	34	288	0
TAP	34	288	4
TAP	35	0	1
TAP	35	48	5
TAP	35	72	4
TAP	35	96	5
TAP	35	120	6
TAP	35	144	5
TAP	35	192	1
TAP	35	240	2
TAP	35	288	3
TAP	35	288	7
TAP	36	0	6
TAP	36	48	2
TAP	36	72	3
TAP	36	96	2
TAP	36	120	1
TAP	36	144	2
TAP	36	192	6
TAP	36	240	5
TAP	36	288	4
TAP	36	288	7
TAP	37	0	1
TAP	37	48	5
TAP	37	72	4
TAP	37	96	5
TAP	37	120	6
TAP	37	144	5
TAP	37	192	1
TAP	37	240	2
TAP	37	288	0
TAP	37	288	3
TAP	38	0	6
TAP	38	48	2
TAP	38	72	4
TAP	38	96	3
TAP	38	120	1
TAP	38	144	3
STR	38	192	1
SI_	38	192	1	96	48	5
TAP	38	240	2
TAP	39	0	1
TAP	39	48	5
TAP	39	72	3
TAP	39	96	4
TAP	39	120	6
TAP	39	144	4
STR	39	192	6
SI_	39	192	6	96	48	2
TAP	39	240	5
TAP	40	0	0
TAP	40	0	7
TAP	40	48	1
TAP	40	72	3
TAP	40	96	2
TAP	40	120	4
TAP	40	144	3
TAP	40	168	5
TAP	40	192	4
TAP	40	216	6
TAP	40	240	3
TAP	40	264	5
TAP	40	288	2
TAP	40	312	4
TAP	40	336	1
TAP	40	360	3
XST	41	0	0
SI_	41	0	0	96	48	2
XST	41	48	0
SI_	41	48	0	96	48	6
XST	41	96	0
SI_	41	96	0	96	48	4
XST	41	144	0
SCR	41	144	0	96	48	3
XST	41	192	0
SCL	41	192	0	96	48	5
XTP	41	240	0
XTP	41	288	0
XTP	42	0	4
XTP	42	48	4
TAP	42	96	5
TAP	42	120	4
TAP	42	168	2
TAP	42	192	3
TAP	42	240	3
TAP	42	240	5
STR	42	288	1
SCR	42	288	1	96	48	3
STR	42	288	7
SCL	42	288	7	96	48	5
BST	43	0	1
SI_	43	0	1	96	48	5
BST	43	0	7
SI_	43	0	7	96	48	3
TAP	43	96	1
TAP	43	96	7
XTP	43	192	0
XTP	43	192	4
STR	43	288	2
SXL	43	288	2	96	144	1
STR	43	288	6
SXL	43	288	6	96	144	5
XTP	44	0	2
XTP	44	0	6
TAP	44	240	7
TAP	44	288	0
TAP	44	288	6
TAP	44	336	1
TAP	44	336	5
TAP	45	0	2
STR	45	0	4
SI_	45	0	4	96	48	0
STR	45	96	1
SI_	45	96	1	96	48	4
STR	45	192	6
SI_	45	192	6	96	48	2
HLD	45	288	3	96
XTP	46	0	0
TAP	46	96	5
BRK	46	144	4
BRK	46	144	6
TAP	46	240	2
TAP	46	240	7
TAP	46	288	1
TAP	46	288	6
TAP	46	336	0
TAP	46	336	5
XST	47	0	0
SI_	47	0	0	96	48	4
XST	47	0	5
SI_	47	0	5	96	48	7
TAP	47	96	0
TAP	47	96	5
XST	47	192	0
SI_	47	192	0	96	48	4
XST	47	192	3
SI_	47	192	3	96	48	1
TAP	47	288	0
TAP	47	288	3
XST	48	0	0
SCL	48	0	0	96	48	5
XTP	48	0	5
TAP	48	96	4
STR	48	144	4
SI_	48	144	4	96	48	0
TAP	48	240	3
TAP	48	288	3
STR	49	0	4
SI_	49	0	4	96	48	0
STR	49	0	6
SI_	49	0	6	96	48	4
TAP	49	96	4
TAP	49	96	6
TAP	49	192	1
STR	49	192	3
SI_	49	192	3	96	48	7
TAP	49	288	2
STR	49	288	3
SXL	49	288	3	96	192	7
SXR	49	288	3	96	192	7
TAP	50	240	0
BRK	50	288	1
BRK	50	288	6
STR	51	0	4
SI_	51	0	4	96	48	0
STR	51	96	2
SI_	51	96	2	96	48	7
TAP	51	96	4
TAP	51	192	2
STR	51	192	5
SI_	51	192	5	96	48	0
STR	51	288	2
SXL	51	288	2	96	144	3
SLL	51	288	2	96	144	3
TAP	51	288	5
TAP	52	240	0
TAP	52	240	7
STR	52	288	6
SI_	52	288	6	96	48	2
TAP	52	336	6
STR	53	0	1
SI_	53	0	1	96	48	4
TAP	53	48	1
STR	53	96	5
SI_	53	96	5	96	48	0
TAP	53	144	5
TAP	53	192	2
TAP	53	240	2
TAP	53	288	3
STR	53	336	1
SCR	53	336	1	96	48	4
TAP	53	336	4
TAP	54	48	7
STR	54	96	7
SF_	54	96	7	96	48	3
BRK	54	192	7
XTP	54	288	1
XTP	54	288	5
TAP	55	0	4
STR	55	0	6
SI_	55	0	6	96	48	2
STR	55	96	0
SI_	55	96	0	96	48	5
STR	55	192	4
SI_	55	192	4	96	48	0
TAP	55	288	3
HLD	55	336	2	96
STR	56	48	3
SI_	56	48	3	96	48	6
TAP	56	96	3
STR	56	144	0
SCR	56	144	0	96	48	3
TAP	56	192	0
TAP	56	240	7
TAP	56	288	6
TAP	56	336	5
TAP	57	0	0
STR	57	0	4
SXL	57	0	4	96	120	4
SXR	57	0	4	96	120	4
TAP	57	288	2
TAP	57	288	6
XTP	57	336	2
XTP	57	336	6
STR	58	48	1
SI_	58	48	1	96	48	4
TAP	58	96	3
TAP	58	144	1
STR	58	192	7
SCL	58	192	7	96	48	4
SCR	58	192	7	96	48	2
BRK	58	288	7
HLD	59	0	6	96
HLD	59	96	4	96
HLD	59	192	3	96
TAP	59	288	0
STR	59	336	0
SUR	59	336	0	96	48	6
STR	60	48	7
SI_	60	48	7	96	48	3
TAP	60	144	3
TAP	60	144	7
TAP	60	240	1
TAP	60	240	5
BRK	60	288	1
BRK	60	288	5
HLD	61	0	2	72
HLD	61	72	3	72
HLD	61	144	0	96
TAP	61	240	7
TAP	61	288	6
TAP	61	336	5
TAP	62	0	2
TAP	62	24	3
TAP	62	48	2
TAP	62	96	7
TAP	62	144	0
TAP	62	192	1
TAP	62	192	3
TAP	62	240	2
TAP	62	240	4
TAP	62	288	3
TAP	62	288	5
HLD	62	336	4	96
TAP	62	336	6
TAP	63	48	7
TAP	63	96	6
TAP	63	144	0
TAP	63	192	7
TAP	63	240	5
TAP	63	288	6
TAP	63	336	7
HLD	64	0	0	96
TAP	64	0	2
TAP	64	96	7
TAP	64	144	1
TAP	64	144	6
XTP	64	240	7
XTP	64	288	7
TAP	65	0	1
TAP	65	0	3
TAP	65	48	2
TAP	65	96	3
TAP	65	96	4
TAP	65	144	4
HLD	65	144	5	192
TAP	65	240	7
TAP	65	288	0
TAP	65	336	1
TAP	66	0	2
TAP	66	0	5
TAP	66	48	3
TAP	66	48	6
TAP	66	96	2
TAP	66	96	5
HLD	66	144	0	96
TAP	66	144	4
TAP	66	240	7
TAP	66	288	1
TAP	66	288	6
TAP	66	336	2
HLD	66	336	5	192
TAP	67	48	4
TAP	67	96	3
TAP	67	144	2
TAP	67	192	1
TAP	67	192	7
TAP	67	240	0
STR	67	240	6
SCL	67	240	6	96	192	1
TAP	67	288	5
TAP	67	288	7
HLD	67	336	4	336
TAP	67	336	6
XTP	68	240	0
XTP	68	288	0
XTP	69	0	2
XTP	69	0	4
TAP	69	96	7
TAP	69	144	7
TAP	69	240	5
STR	69	288	5
SI_	69	288	5	96	48	2
TAP	69	336	4
HLD	70	0	6	96
TAP	70	96	0
TAP	70	144	0
TAP	70	240	2
STR	70	288	2
SI_	70	288	2	96	48	5
TAP	70	336	3
HLD	71	0	1	96
TAP	71	96	7
TAP	71	144	7
TAP	71	240	6
TAP	71	288	5
STR	71	336	4
SCL	71	336	4	96	144	1
HLD	72	0	4	192
STR	72	288	0
SI_	72	288	0	96	96	4
TAP	72	288	6
STR	73	0	4
SCR	73	0	4	96	96	7
STR	73	96	7
SI_	73	96	7	96	96	3
STR	73	192	3
SCL	73	192	3	96	48	1
STR	73	288	4
SI_	73	288	4	96	96	0
STR	74	0	0
SCR	74	0	0	96	96	3
STR	74	96	3
SI_	74	96	3	96	96	7
STR	74	192	7
SCL	74	192	7	96	48	4
TAP	74	288	4
STR	75	0	2
SI_	75	0	2	96	48	6
XHO	75	96	2	96
STR	75	192	0
SI_	75	192	0	96	48	4
XHO	75	288	0	96
STR	76	0	6
SI_	76	0	6	96	48	1
XHO	76	96	6	96
STR	76	192	3
SI_	76	192	3	96	48	7
XHO	76	288	3	96
STR	77	0	2
SI_	77	0	2	96	48	6
XST	77	96	2
SCL	77	96	2	96	96	7
XST	77	192	7
SCL	77	192	7	96	96	4
XST	77	288	4
SCL	77	288	4	96	96	1
BST	78	0	1
SI_	78	0	1	96	48	5
XTP	78	96	3
TAP	78	192	4
TAP	78	240	3
TAP	78	240	5
STR	78	288	1
SI_	78	288	1	96	48	5
STR	78	288	7
SI_	78	288	7	96	48	5
STR	79	0	1
SV_	79	0	1	96	48	4
STR	79	0	7
SV_	79	0	7	96	48	4
STR	79	96	1
SI_	79	96	1	96	48	3
STR	79	96	7
SI_	79	96	7	96	48	3
BRK	79	192	1
BRK	79	192	7
XST	79	288	0
SXL	79	288	0	96	192	5
XTP	79	288	4
TAP	80	0	0
TAP	80	0	7
XTP	80	96	4
XTP	80	144	4
TAP	80	240	0
TAP	80	288	0
TAP	80	288	6
TAP	80	336	1
STR	81	0	2
SI_	81	0	2	96	48	4
TAP	81	0	4
TAP	81	96	2
STR	81	96	6
SI_	81	96	6	96	48	2
STR	81	192	0
SI_	81	192	0	96	48	4
TAP	81	192	6
TAP	81	288	0
TAP	81	288	4
TAP	82	0	2
STR	82	0	6
SCR	82	0	6	96	48	1
TAP	82	96	4
TAP	82	144	4
TAP	82	240	0
TAP	82	288	7
TAP	82	336	6
TAP	83	0	3
STR	83	0	5
SCL	83	0	5	96	48	3
TAP	83	96	5
TAP	83	96	7
STR	83	192	1
SCL	83	192	1	96	48	7
STR	83	288	1
SXL	83	288	1	96	144	4
STR	83	288	7
SXR	83	288	7	96	144	4
TAP	84	240	0
STR	84	288	0
SI_	84	288	0	96	48	4
TAP	84	336	1
XTP	85	0	0
XTP	85	0	2
STR	85	96	7
SI_	85	96	7	96	48	3
TAP	85	144	6
XTP	85	192	5
XTP	85	192	7
XTP	85	288	2
XTP	85	288	4
TAP	85	336	3
TAP	85	336	5
TAP	86	0	4
TAP	86	0	6
TAP	86	48	5
STR	86	48	7
SF_	86	48	7	96	48	3
XTP	86	144	7
BRK	86	240	0
BRK	86	240	7
BRK	86	288	0
BRK	86	288	7
BRK	86	336	1
BRK	86	336	6
BRK	87	0	2
BST	87	0	5
SCL	87	0	5	96	48	2
TTP	87	96	0	B	0	M1
TTP	87	96	7	B	0	M1
TAP	87	192	1
STR	87	192	6
SCR	87	192	6	96	48	1
TTP	87	288	3	B	0	M1
TTP	87	288	4	B	0	M1
TTP	88	0	2	B	0	M1
TTP	88	0	2	E	0	M1
TTP	88	48	6	B	0	M1
TTP	88	48	6	E	0	M1
TTP	88	96	4	B	0	M1
TTP	88	96	4	E	0	M1
TTP	88	144	0	C	0	M1
TAP	88	240	0
TAP	88	240	7
TAP	88	288	0
TAP	88	288	7
TAP	89	0	4
STR	89	0	6
SI_	89	0	6	96	48	1
TAP	89	96	2
STR	89	144	2
SCR	89	144	2	96	96	5
STR	89	240	5
SXR	89	240	5	96	240	2
TTP	89	336	0	C	1	M1
TAP	90	192	0
TAP	90	240	0
TAP	90	288	1
TAP	90	288	7
TAP	91	0	2
STR	91	0	3
SI_	91	0	3	96	48	0
STR	91	96	1
SI_	91	96	1	96	48	5
TAP	91	96	3
TAP	91	192	1
TAP	91	192	5
TAP	91	288	7
STR	91	336	0
SI_	91	336	0	96	48	4
TAP	91	336	6
STR	92	48	5
SI_	92	48	5	96	48	1
TAP	92	96	5
STR	92	144	3
SCL	92	144	3	96	96	7
TAP	92	192	3
TAP	92	240	7
TAP	92	288	6
TAP	92	336	5
TAP	93	0	0
STR	93	0	4
SI_	93	0	4	96	48	7
STR	93	96	2
SI_	93	96	2	96	48	6
TAP	93	192	0
STR	93	240	0
SCL	93	240	0	96	192	1
TTP	93	336	0	C	1	M1
TAP	94	192	0
TAP	94	240	0
TAP	94	288	1
TAP	94	288	6
TTP	95	0	2	B	0	M1
TTP	95	0	2	E	0	M1
XTP	95	0	7
XTP	95	96	0
TTP	95	96	5	B	0	M1
TTP	95	96	6	E	0	M1
BRK	95	192	1
BRK	95	192	6
XTP	95	288	3
XTP	95	288	4
XTP	95	336	3
XTP	95	336	4
TAP	96	48	0
TAP	96	72	7
TAP	96	96	0
TAP	96	120	7
TAP	96	144	0
TAP	96	168	7
TAP	96	192	1
TAP	96	216	6
TAP	96	240	0
TAP	96	264	7
TAP	96	288	1
TAP	96	312	6
TAP	96	336	0
TAP	96	360	7
XTP	97	0	1
XTP	97	0	6
TAP	97	96	4
TAP	97	96	6
TAP	97	192	1
TAP	97	192	3
TAP	97	240	1
TAP	97	240	3
TTP	97	336	0	C	1	M1
TTP	97	336	1	B	0	M1
TTP	97	336	2	B	0	M1
TTP	97	336	3	B	0	M1
TTP	97	336	4	B	0	M1
TTP	97	336	4	E	0	M1
TTP	97	336	5	B	0	M1
TTP	97	336	6	B	0	M1
XTP	98	96	0
XTP	98	96	7
XTP	98	144	0
XTP	98	144	7
TAP	98	240	3
TAP	98	240	4
BRK	98	288	1
BRK	98	288	6
STR	99	0	1
SI_	99	0	1	96	48	4
TAP	99	48	4
TAP	99	96	1
STR	99	144	6
SI_	99	144	6	96	48	3
TAP	99	192	3
TAP	99	240	6
TAP	99	288	2
HLD	99	336	1	96
STR	100	48	0
SCL	100	48	0	96	48	5
TAP	100	96	1
TAP	100	144	0
TAP	100	240	2
TAP	100	240	3
TAP	100	288	4
TAP	100	336	5
STR	101	0	6
SI_	101	0	6	96	48	3
TAP	101	48	3
TAP	101	96	6
STR	101	144	1
SI_	101	144	1	96	48	4
TAP	101	192	4
TAP	101	240	1
TAP	101	288	5
STR	101	336	6
SCL	101	336	6	96	48	3
SCR	101	336	6	96	48	0
TAP	102	48	6
STR	102	144	1
SI_	102	144	1	96	48	5
TAP	102	240	1
TAP	102	240	7
BRK	102	288	7
STR	103	0	5
SI_	103	0	5	96	48	0
TAP	103	48	0
TAP	103	96	5
STR	103	144	2
SI_	103	144	2	96	48	7
TAP	103	192	7
TAP	103	240	2
TAP	103	288	6
HLD	103	336	5	96
STR	104	48	4
SCL	104	48	4	96	48	1
TAP	104	96	6
TAP	104	144	4
TAP	104	240	6
TAP	104	240	7
TAP	104	288	0
TAP	104	336	1
STR	105	0	2
SI_	105	0	2	96	48	7
TAP	105	48	7
TAP	105	96	2
STR	105	144	5
SI_	105	144	5	96	48	0
TAP	105	192	0
TAP	105	240	5
TAP	105	288	1
TAP	105	336	2
TAP	106	0	3
BRK	106	0	6
TAP	106	48	7
TAP	106	96	0
BRK	106	144	1
TAP	106	144	4
TAP	106	192	2
STR	106	240	3
SI_	106	240	3	96	48	0
STR	106	240	7
SI_	106	240	7	96	48	4
TAP	106	288	0
TAP	106	288	4
BRK	106	336	3
BRK	106	336	7

T_REC_TAP	449
T_REC_BRK	30
T_REC_XTP	44
T_REC_HLD	48
T_REC_XHO	4
T_REC_STR	128
T_REC_BST	4
T_REC_XST	14
T_REC_TTP	25
T_REC_THO	0
T_REC_SLD	151
T_REC_ALL	897
T_NUM_TAP	660
T_NUM_BRK	34
T_NUM_HLD	52
T_NUM_SLD	151
T_NUM_ALL	897
T_JUDGE_TAP	694
T_JUDGE_HLD	116
T_JUDGE_SLD	151
T_JUDGE_ALL	961
TTM_EACHPAIRS	136
TTM_SCR_TAP	330000
TTM_SCR_BRK	88400
TTM_SCR_HLD	52000
TTM_SCR_SLD	226500
TTM_SCR_ALL	696900
TTM_SCR_S	672700
TTM_SCR_SS	693500
TTM_RAT_ACV	10049

