VERSION	0.00.00	1.03.00
FES_MODE	0
BPM_DEF	178.000	178.000	178.000	178.000
MET_DEF	4	4
RESOLUTION	384
CLK_DEF	384
COMPATIBLE_CODE	MA2

BPM	0	0	178.000
MET	0	0	4	4

TAP	2	0	2
TAP	2	96	2
TAP	2	96	3
TAP	2	192	2
TAP	2	288	1
TAP	2	288	3
TAP	3	0	5
TAP	3	96	4
TAP	3	96	5
TAP	3	192	5
TAP	3	288	4
TAP	3	288	6
TAP	4	0	2
TAP	4	96	2
TAP	4	96	3
TAP	4	192	2
TAP	4	288	1
TAP	4	288	3
TAP	5	0	5
TAP	5	96	4
TAP	5	96	5
TAP	5	192	5
TAP	5	288	4
TAP	5	288	6
TAP	6	0	1
TAP	6	96	0
TAP	6	96	1
TAP	6	192	1
TAP	6	288	0
TAP	6	288	2
TAP	7	0	6
TAP	7	96	6
TAP	7	96	7
TAP	7	192	6
TAP	7	288	5
TAP	7	288	7
TAP	8	0	1
TAP	8	96	0
TAP	8	96	1
TAP	8	192	1
TAP	8	288	0
TAP	8	288	2
TAP	9	0	6
TAP	9	96	6
TAP	9	96	7
TAP	9	192	0
TAP	9	192	7
TAP	9	288	1
TAP	9	288	6
TAP	10	0	1
TAP	10	0	3
TAP	10	96	2
TAP	10	144	2
TAP	10	192	4
TAP	10	288	3
TAP	10	288	5
TAP	11	0	4
TAP	11	0	6
TAP	11	96	5
TAP	11	144	5
TAP	11	192	3
TAP	11	288	2
TAP	11	288	4
TAP	12	0	1
TAP	12	0	3
TAP	12	96	2
TAP	12	144	2
TAP	12	192	4
TAP	12	288	3
TAP	12	288	5
TAP	13	0	4
TAP	13	0	6
TAP	13	96	5
TAP	13	144	5
TAP	13	192	3
TAP	13	288	2
TAP	13	288	5
HLD	14	0	1	144
TAP	14	96	3
TAP	14	144	3
TAP	14	192	2
TAP	14	192	4
TAP	14	288	3
TAP	14	288	5
HLD	15	0	6	144
TAP	15	96	4
TAP	15	144	4
TAP	15	192	3
TAP	15	192	5
TAP	15	288	2
TAP	15	288	4
HLD	16	0	0	144
TAP	16	96	2
TAP	16	144	2
TAP	16	192	1
TAP	16	192	3
TAP	16	288	2
TAP	16	288	4
HLD	17	0	7	144
TAP	17	96	5
TAP	17	144	5
TAP	17	192	4
TAP	17	192	6
TAP	17	288	2
TAP	17	288	5
HLD	18	0	2	576
TAP	18	96	3
TAP	18	288	5
TAP	19	96	4
TAP	19	288	2
TAP	19	288	3
HLD	20	0	5	672
TAP	20	96	2
TAP	20	288	4
XTP	21	0	6
XTP	21	96	7
XTP	21	192	0
XTP	21	288	1
HLD	22	0	1	576
TAP	22	96	2
TAP	22	288	4
TAP	23	96	3
TAP	23	288	1
TAP	23	288	3
HLD	24	0	6	192
TAP	24	96	4
TAP	24	288	4
TAP	24	288	6
HLD	25	0	1	192
TAP	25	96	3
TAP	25	288	1
TAP	25	288	3
TAP	26	0	0
HLD	26	0	5	672
TAP	26	96	1
TAP	26	192	0
TAP	26	288	1
TAP	27	0	2
TAP	27	96	1
TAP	27	192	2
TAP	27	288	1
HLD	28	0	1	672
TAP	28	0	7
TAP	28	96	6
TAP	28	192	7
TAP	28	288	6
XTP	29	0	5
XTP	29	96	4
XTP	29	192	3
XTP	29	288	2
TAP	30	0	3
HLD	30	0	6	672
TAP	30	96	2
TAP	30	192	3
TAP	30	288	2
TAP	31	0	1
TAP	31	96	2
TAP	31	192	1
TAP	31	288	2
HLD	32	0	1	192
TAP	32	96	3
TAP	32	288	1
TAP	32	288	3
TAP	33	0	4
TAP	33	96	4
TAP	33	96	6
TAP	33	192	3
TAP	33	288	1
TAP	33	288	3
TAP	34	0	4
HLD	34	96	4	192
TAP	34	192	5
HLD	34	288	5	192
TAP	35	0	6
HLD	35	96	6	192
TAP	35	192	7
HLD	35	288	7	192
TAP	36	0	0
HLD	36	96	0	192
TAP	36	192	1
HLD	36	288	1	192
TAP	37	0	2
HLD	37	96	2	192
TAP	37	192	3
HLD	37	288	3	96
HLD	38	0	4	96
HLD	38	96	5	96
HLD	38	192	6	96
HLD	38	288	7	96
HLD	39	0	0	96
HLD	39	96	1	96
HLD	39	192	2	96
HLD	39	288	3	96
HLD	40	0	4	96
HLD	40	96	6	96
HLD	40	192	0	96
HLD	40	288	2	96
HLD	41	0	4	96
TAP	41	96	1
TAP	41	192	0
TAP	41	192	7
TAP	41	288	1
TAP	41	288	6
HLD	42	0	2	96
HLD	42	0	5	96
XTP	42	192	0
XTP	42	192	7
BRK	42	288	1
BRK	42	288	6
STR	43	0	1
SI_	43	0	1	96	48	4
STR	43	96	7
SI_	43	96	7	96	48	3
STR	43	192	0
SI_	43	192	0	96	48	4
STR	43	288	6
SI_	43	288	6	96	48	3
TAP	44	0	2
TAP	44	96	1
TAP	44	96	4
TAP	44	144	1
TAP	44	144	4
TAP	44	240	3
TAP	44	240	6
TAP	44	288	3
TAP	44	288	6
STR	45	0	1
SI_	45	0	1	96	48	4
TAP	45	96	5
STR	45	192	6
SI_	45	192	6	96	48	3
TAP	45	288	2
TAP	46	0	1
TAP	46	96	4
TAP	46	96	6
TAP	46	144	4
TAP	46	144	6
TAP	46	240	1
TAP	46	240	3
TAP	46	288	1
TAP	46	288	3
TAP	47	0	0
HLD	47	0	1	96
TAP	47	96	3
HLD	47	192	6	96
TAP	47	192	7
TAP	47	288	4
TAP	48	0	0
HLD	48	0	1	96
TAP	48	96	4
TAP	48	144	4
TAP	48	240	3
TAP	48	240	5
TAP	48	288	3
TAP	48	288	5
STR	49	0	6
SUL	49	0	6	96	48	2
TAP	49	96	0
STR	49	192	1
SUR	49	192	1	96	48	5
TAP	49	288	7
TAP	50	0	6
TAP	50	96	2
TAP	50	96	7
TAP	50	144	2
TAP	50	144	7
TAP	50	240	0
TAP	50	240	5
TAP	50	288	0
TAP	50	288	5
STR	51	0	6
SI_	51	0	6	96	48	3
STR	51	96	0
SI_	51	96	0	96	48	4
STR	51	192	7
SI_	51	192	7	96	48	3
STR	51	288	1
SI_	51	288	1	96	48	4
TAP	52	0	5
TAP	52	96	3
TAP	52	96	6
TAP	52	144	3
TAP	52	144	6
TAP	52	240	1
TAP	52	240	4
TAP	52	288	1
TAP	52	288	4
STR	53	0	6
SI_	53	0	6	96	48	3
TAP	53	96	2
STR	53	192	1
SI_	53	192	1	96	48	4
TAP	53	288	5
TAP	54	0	6
TAP	54	96	0
TAP	54	96	2
TAP	54	144	0
TAP	54	144	2
TAP	54	240	5
TAP	54	240	7
TAP	54	288	5
TAP	54	288	7
HLD	55	0	6	96
TAP	55	0	7
TAP	55	96	4
TAP	55	192	0
HLD	55	192	1	96
TAP	55	288	4
TAP	55	336	4
TAP	56	48	3
TAP	56	48	5
TAP	56	96	3
TAP	56	96	5
TAP	56	192	6
TAP	56	240	6
TAP	56	288	0
STR	57	0	1
SUR	57	0	1	96	48	5
TAP	57	96	7
STR	57	192	6
SUL	57	192	6	96	48	2
TAP	57	288	0
TAP	58	0	1
TAP	58	96	0
TAP	58	96	5
TAP	58	144	0
TAP	58	144	5
TAP	58	240	2
TAP	58	240	7
TAP	58	288	2
TAP	58	288	7
TAP	59	0	4
TAP	59	0	5
TAP	59	96	4
TAP	59	96	5
TAP	59	192	3
TAP	59	192	6
TAP	59	288	1
TAP	59	288	4
HLD	59	336	1	96
HLD	59	336	4	96
HLD	60	144	2	144
HLD	60	144	6	144
TAP	61	0	2
TAP	61	96	1
TAP	61	96	3
TAP	61	192	7
TAP	61	240	7
TAP	61	288	0
TAP	61	288	6
TAP	62	0	5
TAP	62	96	4
TAP	62	96	6
TAP	62	192	0
TAP	62	240	0
TAP	62	288	1
TAP	62	288	7
TAP	63	0	2
TAP	63	96	1
TAP	63	96	3
TAP	63	192	7
TAP	63	240	7
TAP	63	288	0
TAP	63	288	6
TAP	64	0	5
TAP	64	96	4
TAP	64	96	6
TAP	64	192	1
TAP	64	240	0
TAP	64	288	2
TAP	64	288	7
TAP	65	0	6
TAP	65	96	5
TAP	65	96	7
TAP	65	192	3
TAP	65	240	3
TAP	65	288	2
TAP	65	288	4
TAP	66	0	1
TAP	66	96	0
TAP	66	96	2
TAP	66	192	4
TAP	66	240	4
TAP	66	288	3
TAP	66	288	5
TAP	67	0	6
TAP	67	96	5
TAP	67	96	7
TAP	67	192	3
TAP	67	240	3
TAP	67	288	2
TAP	67	288	4
TAP	68	0	1
TAP	68	96	0
TAP	68	96	2
TAP	68	192	7
TAP	68	240	0
XTP	68	288	1
XTP	68	288	6
TTP	69	0	0	B	0	M1
TTP	69	96	1	B	0	M1
TTP	69	192	2	B	0	M1
TTP	69	288	3	B	0	M1
TTP	69	288	3	E	0	M1
TTP	70	0	4	B	0	M1
TTP	70	96	5	B	0	M1
TTP	70	192	6	B	0	M1
TTP	70	288	7	B	0	M1
TTP	70	288	7	E	0	M1
TTP	71	0	0	B	0	M1
TTP	71	96	1	B	0	M1
TTP	71	192	2	B	0	M1
TTP	71	288	3	B	0	M1
TTP	71	288	4	B	0	M1
TTP	72	0	1	E	0	M1
TTP	72	0	7	E	0	M1
TTP	72	192	5	B	0	M1
TTP	72	192	6	E	0	M1
TTP	72	288	2	B	0	M1
TTP	72	288	2	E	0	M1
XHO	73	0	6	288
TTP	73	96	7	B	0	M1
TTP	73	192	0	C	0	M1
TTP	73	288	3	B	0	M1
XHO	74	0	1	288
TTP	74	96	0	B	0	M1
TTP	74	192	0	C	0	M1
TTP	74	288	4	B	0	M1
XHO	75	0	6	288
TTP	75	96	0	B	0	M1
TTP	75	96	7	B	0	M1
TTP	75	192	0	C	0	M1
TTP	75	288	3	B	0	M1
TTP	75	288	4	B	0	M1
TTP	76	0	1	E	0	M1
TTP	76	0	7	E	0	M1
TTP	76	96	1	B	0	M1
TTP	76	96	6	B	0	M1
TTP	76	192	2	B	0	M1
TTP	76	192	5	B	0	M1
TTP	76	288	3	E	0	M1
TTP	76	288	5	E	0	M1
THO	77	0	0	384	C	1	M1
XTP	78	288	0
XTP	78	288	7
STR	79	0	1
SI_	79	0	1	96	48	4
STR	79	96	7
SI_	79	96	7	96	48	3
STR	79	192	0
SI_	79	192	0	96	48	4
STR	79	288	6
SI_	79	288	6	96	48	3
TAP	80	0	2
TAP	80	96	1
TAP	80	96	4
TAP	80	144	1
TAP	80	144	4
TAP	80	240	2
TAP	80	240	6
TAP	80	288	2
TAP	80	288	6
STR	81	0	1
SI_	81	0	1	96	48	4
TAP	81	96	5
STR	81	192	6
SI_	81	192	6	96	48	3
TAP	81	288	2
TAP	82	0	1
TAP	82	96	4
TAP	82	96	6
TAP	82	144	4
TAP	82	144	6
TAP	82	240	0
TAP	82	240	2
TAP	82	288	0
TAP	82	288	2
TAP	83	0	0
HLD	83	0	1	96
TAP	83	96	3
HLD	83	192	6	96
TAP	83	192	7
TAP	83	288	4
TAP	84	0	0
HLD	84	0	1	96
TAP	84	96	2
TAP	84	144	2
TAP	84	240	3
TAP	84	240	5
TAP	84	288	3
TAP	84	288	5
STR	85	0	6
SUL	85	0	6	96	48	2
TAP	85	96	0
STR	85	192	1
SUR	85	192	1	96	48	5
TAP	85	288	7
TAP	86	0	6
TAP	86	48	6
TAP	86	144	2
TAP	86	144	7
TAP	86	240	0
TAP	86	240	5
TAP	86	288	0
TAP	86	288	5
STR	87	0	0
SI_	87	0	0	96	48	4
HLD	87	0	1	96
HLD	87	192	6	96
STR	87	192	7
SI_	87	192	7	96	48	3
TAP	88	0	5
TAP	88	96	2
TAP	88	96	4
TAP	88	144	2
TAP	88	144	4
TAP	88	240	3
TAP	88	240	5
TAP	88	288	3
TAP	88	288	5
TAP	89	0	6
TAP	89	96	2
TAP	89	96	3
TAP	89	144	2
TAP	89	144	3
TAP	89	240	4
TAP	89	240	5
HLD	89	336	3	192
HLD	89	336	6	192
TAP	90	240	7
TAP	90	288	7
HLD	91	0	6	96
TAP	91	0	7
TAP	91	96	4
TAP	91	192	0
HLD	91	192	1	96
TAP	91	288	3
TAP	91	336	3
TAP	92	48	2
TAP	92	48	4
TAP	92	96	2
TAP	92	96	4
TAP	92	192	1
TAP	92	240	1
TAP	92	288	7
STR	93	0	0
SCR	93	0	0	96	48	3
TAP	93	96	4
STR	93	192	4
SCR	93	192	4	96	48	7
TAP	93	288	0
STR	93	336	0
SXL	93	336	0	96	192	4
SXR	93	336	0	96	192	4
HLD	95	0	3	96
HLD	95	0	6	96
HLD	95	192	1	96
HLD	95	192	4	96
HLD	96	0	3	192
HLD	96	0	7	192
STR	97	0	0
SI_	97	0	0	96	48	4
STR	97	0	1
SI_	97	0	1	96	48	4
STR	97	192	6
SI_	97	192	6	96	48	3
STR	97	192	7
SI_	97	192	7	96	48	3
TTP	98	0	0	C	1	M1
TTP	98	0	1	B	0	M1
TTP	98	0	2	B	0	M1
TTP	98	0	5	B	0	M1
TTP	98	0	6	B	0	M1
XTP	98	288	0
XTP	98	288	7
TAP	99	0	4
TAP	99	0	6
TAP	99	96	5
TAP	99	144	5
TAP	99	192	3
TAP	99	288	2
TAP	99	288	4
TAP	100	0	1
TAP	100	0	3
TAP	100	96	2
TAP	100	144	2
TAP	100	192	4
TAP	100	288	3
TAP	100	288	5
TAP	101	0	4
TAP	101	0	6
TAP	101	96	5
TAP	101	144	5
TAP	101	192	3
TAP	101	288	2
TAP	101	288	4
TAP	102	0	1
TAP	102	0	3
TAP	102	96	2
TAP	102	144	2
TAP	102	192	4
TAP	102	288	2
TAP	102	288	5
HLD	103	0	6	144
TAP	103	96	4
TAP	103	144	4
TAP	103	192	3
TAP	103	192	5
TAP	103	288	2
TAP	103	288	4
HLD	104	0	1	144
TAP	104	96	3
TAP	104	144	3
TAP	104	192	2
TAP	104	192	4
TAP	104	288	3
TAP	104	288	5
HLD	105	0	7	144
TAP	105	96	5
TAP	105	144	5
TAP	105	192	4
TAP	105	192	6
TAP	105	288	3
TAP	105	288	5
HLD	106	0	0	144
TAP	106	96	2
TAP	106	144	2
TAP	106	192	1
TAP	106	192	3
XTP	106	288	2
XTP	106	288	5
XTP	106	336	2
XTP	106	336	5

T_REC_TAP	431
T_REC_BRK	2
T_REC_XTP	20
T_REC_HLD	64
T_REC_XHO	3
T_REC_STR	33
T_REC_BST	0
T_REC_XST	0
T_REC_TTP	45
T_REC_THO	1
T_REC_SLD	34
T_REC_ALL	633
T_NUM_TAP	529
T_NUM_BRK	2
T_NUM_HLD	68
T_NUM_SLD	34
T_NUM_ALL	633
T_JUDGE_TAP	531
T_JUDGE_HLD	260
T_JUDGE_SLD	34
T_JUDGE_ALL	825
TTM_EACHPAIRS	157
TTM_SCR_TAP	264500
TTM_SCR_BRK	5200
TTM_SCR_HLD	68000
TTM_SCR_SLD	51000
TTM_SCR_ALL	388700
TTM_SCR_S	376850
TTM_SCR_SS	388500
TTM_RAT_ACV	10005

