VERSION	0.00.00	1.03.00
FES_MODE	0
BPM_DEF	178.000	178.000	178.000	178.000
MET_DEF	4	4
RESOLUTION	384
CLK_DEF	384
COMPATIBLE_CODE	MA2

BPM	0	0	178.000
MET	0	0	4	4

XTP	2	0	2
TAP	2	192	2
TAP	2	192	3
TAP	3	0	5
TAP	3	192	4
TAP	3	192	5
TAP	4	0	2
TAP	4	192	2
TAP	4	192	3
TAP	5	0	5
TAP	5	96	5
TAP	5	192	4
TAP	5	192	6
TAP	6	0	6
TAP	6	192	6
TAP	6	192	7
TAP	7	0	1
TAP	7	192	0
TAP	7	192	1
TAP	8	0	6
TAP	8	192	6
TAP	8	192	7
TAP	9	0	0
TAP	9	96	0
XTP	9	192	1
XTP	9	192	6
XTP	10	0	2
TAP	10	96	2
TAP	10	192	3
TAP	11	0	5
TAP	11	96	5
TAP	11	192	4
TAP	12	0	2
TAP	12	96	2
TAP	12	192	3
TAP	13	0	5
TAP	13	96	5
TAP	13	192	4
TAP	13	192	6
TAP	14	0	6
TAP	14	96	6
TAP	14	192	7
TAP	15	0	1
TAP	15	96	1
TAP	15	192	0
TAP	16	0	6
TAP	16	96	6
TAP	16	192	7
TAP	17	0	0
TAP	17	96	0
XTP	17	192	1
XTP	17	192	6
HLD	18	0	2	576
TAP	19	0	3
TAP	19	192	3
HLD	20	0	5	384
TAP	21	0	4
XTP	21	192	3
XTP	21	192	5
HLD	22	0	6	576
TAP	23	0	7
TAP	23	192	7
HLD	24	0	0	192
HLD	24	0	7	192
XTP	25	0	1
XTP	25	0	6
HLD	26	0	2	384
TAP	26	192	3
TAP	27	0	3
XTP	27	192	2
XTP	27	192	3
HLD	28	0	5	384
TAP	28	192	4
TAP	29	0	4
XTP	29	192	3
XTP	29	192	5
HLD	30	0	6	384
TAP	30	192	7
TAP	31	0	7
XTP	31	192	6
XTP	31	192	7
STR	32	0	0
SI_	32	0	0	96	192	3
STR	32	0	7
SI_	32	0	7	96	192	4
XTP	33	0	2
XTP	33	0	5
TAP	34	0	2
TAP	34	96	2
TAP	34	192	2
TAP	35	0	3
TAP	35	96	3
TAP	35	192	3
TAP	36	0	4
TAP	36	96	4
TAP	36	192	4
TAP	37	0	5
TAP	37	96	5
TAP	37	192	5
TAP	38	0	6
TAP	38	96	6
XTP	38	192	6
XTP	38	192	7
TAP	39	0	7
TAP	39	96	7
XTP	39	192	0
XTP	39	192	7
TAP	40	0	6
TAP	40	96	6
XTP	40	192	6
XTP	40	192	7
TAP	41	0	1
TAP	41	96	1
XTP	41	192	0
XTP	41	192	1
XTP	42	0	0
XTP	42	0	7
XTP	42	96	0
XTP	42	96	7
BRK	42	192	1
BRK	42	192	6
TAP	43	0	1
TAP	43	96	1
TAP	43	192	0
TAP	43	288	0
TAP	44	0	7
TAP	44	96	7
TAP	44	192	0
TAP	44	192	6
TAP	45	0	6
TAP	45	96	6
TAP	45	192	7
TAP	45	288	7
TAP	46	0	0
TAP	46	96	0
TAP	46	192	1
TAP	46	192	7
TAP	47	0	2
TAP	47	96	2
TAP	47	192	3
TAP	47	288	3
TAP	48	0	4
TAP	48	96	4
TAP	48	192	3
TAP	48	192	5
TAP	49	0	5
TAP	49	96	5
TAP	49	192	4
TAP	49	288	4
TAP	50	0	3
TAP	50	96	3
TAP	50	192	2
TAP	50	192	5
TAP	51	0	1
TAP	51	96	1
TAP	51	192	0
TAP	51	192	1
TAP	51	288	0
TAP	51	288	1
TAP	52	0	1
TAP	52	96	0
TAP	52	192	1
TAP	52	192	7
TAP	53	0	6
TAP	53	96	6
TAP	53	192	6
TAP	53	192	7
TAP	53	288	6
TAP	53	288	7
TAP	54	0	6
TAP	54	96	7
TAP	54	192	0
TAP	54	192	6
TAP	55	0	5
TAP	55	96	5
TAP	55	192	4
TAP	55	192	5
TAP	55	288	4
TAP	55	288	5
TAP	56	0	5
TAP	56	96	4
TAP	56	192	3
TAP	56	192	5
TAP	57	0	3
TAP	57	96	3
TAP	57	192	4
TAP	57	288	4
TAP	58	0	3
TAP	58	0	4
TAP	58	96	3
TAP	58	96	4
TAP	58	192	2
TAP	58	192	5
HLD	59	0	2	192
HLD	59	192	3	192
HLD	60	0	4	144
STR	61	0	5
SI_	61	0	5	96	192	0
TAP	62	0	1
TAP	62	192	0
TAP	62	192	1
STR	63	0	1
SI_	63	0	1	96	192	4
TAP	64	0	5
TAP	64	96	5
TAP	64	192	4
TAP	64	192	6
STR	65	0	6
SI_	65	0	6	96	192	3
TAP	66	0	2
TAP	66	192	2
TAP	66	192	3
STR	67	0	2
SI_	67	0	2	96	192	5
TAP	68	0	6
TAP	68	96	6
XTP	68	192	0
XTP	68	192	7
TTP	69	0	1	B	0	L1
TTP	69	192	2	B	0	L1
TTP	70	0	3	B	0	L1
TTP	70	192	4	B	0	L1
TTP	71	0	5	B	0	L1
TTP	71	192	6	B	0	L1
TTP	72	0	0	C	0	L1
TTP	73	0	3	B	0	L1
TTP	73	0	4	B	0	L1
TTP	74	0	2	B	0	L1
TTP	74	0	5	B	0	L1
TTP	75	0	1	B	0	L1
TTP	75	0	6	B	0	L1
TTP	76	0	0	B	0	L1
TTP	76	0	7	B	0	L1
THO	77	0	0	384	C	1	L1
TAP	79	0	6
TAP	79	96	6
TAP	79	192	7
TAP	79	288	7
TAP	80	0	0
TAP	80	96	0
TAP	80	192	1
TAP	80	192	7
TAP	81	0	1
TAP	81	96	1
TAP	81	192	0
TAP	81	288	0
TAP	82	0	7
TAP	82	96	7
TAP	82	192	0
TAP	82	192	6
TAP	83	0	5
TAP	83	96	5
TAP	83	192	4
TAP	83	288	4
TAP	84	0	3
TAP	84	96	3
TAP	84	192	2
TAP	84	192	4
TAP	85	0	2
TAP	85	96	2
TAP	85	192	3
TAP	85	288	3
TAP	86	0	4
TAP	86	96	4
TAP	86	192	2
TAP	86	192	5
TAP	87	0	6
TAP	87	96	6
XTP	87	192	6
XTP	87	192	7
TAP	88	0	1
TAP	88	96	1
XTP	88	192	0
XTP	88	192	1
TAP	89	0	1
TAP	89	96	1
TAP	89	192	0
TAP	89	288	0
TAP	90	0	7
TAP	90	96	7
XTP	90	192	1
XTP	90	192	6
TAP	91	0	5
TAP	91	96	5
TAP	91	192	4
TAP	91	192	5
TAP	91	288	4
TAP	91	288	5
TAP	92	0	5
TAP	92	96	4
TAP	92	192	3
TAP	92	192	5
TAP	93	0	3
TAP	93	96	3
TAP	93	192	4
TAP	93	288	4
TAP	94	0	3
TAP	94	0	4
TAP	94	96	3
TAP	94	96	4
TAP	94	192	2
TAP	94	192	5
STR	95	0	2
SCL	95	0	2	96	480	5
STR	97	0	5
SCR	97	0	5	96	480	2
XTP	99	0	2
TAP	99	96	2
TAP	99	192	3
TAP	100	0	5
TAP	100	96	5
TAP	100	192	4
TAP	101	0	2
TAP	101	96	2
TAP	101	192	3
TAP	102	0	5
TAP	102	96	5
TAP	102	192	4
TAP	102	192	6
TAP	103	0	6
TAP	103	96	6
TAP	103	192	7
TAP	104	0	1
TAP	104	96	1
TAP	104	192	0
TAP	105	0	6
TAP	105	96	6
TAP	105	192	7
TAP	106	0	0
TAP	106	0	7
TAP	106	96	0
TAP	106	96	7
XTP	106	192	1
XTP	106	192	6
XTP	106	288	1
XTP	106	288	6

T_REC_TAP	248
T_REC_BRK	2
T_REC_XTP	43
T_REC_HLD	11
T_REC_XHO	0
T_REC_STR	8
T_REC_BST	0
T_REC_XST	0
T_REC_TTP	15
T_REC_THO	1
T_REC_SLD	8
T_REC_ALL	336
T_NUM_TAP	314
T_NUM_BRK	2
T_NUM_HLD	12
T_NUM_SLD	8
T_NUM_ALL	336
T_JUDGE_TAP	316
T_JUDGE_HLD	83
T_JUDGE_SLD	8
T_JUDGE_ALL	407
TTM_EACHPAIRS	63
TTM_SCR_TAP	157000
TTM_SCR_BRK	5200
TTM_SCR_HLD	12000
TTM_SCR_SLD	12000
TTM_SCR_ALL	186200
TTM_SCR_S	180450
TTM_SCR_SS	186000
TTM_RAT_ACV	10010

