VERSION	0.00.00	1.03.00
FES_MODE	0
BPM_DEF	178.000	178.000	178.000	178.000
MET_DEF	4	4
RESOLUTION	384
CLK_DEF	384
COMPATIBLE_CODE	MA2

BPM	0	0	178.000
MET	0	0	4	4

TAP	2	0	0
TAP	3	0	0
TAP	4	0	1
TAP	5	0	1
TAP	6	0	2
TAP	7	0	2
TAP	8	0	3
TAP	8	0	4
TAP	9	0	3
TAP	9	0	4
TAP	10	0	4
TAP	11	0	4
TAP	12	0	5
TAP	13	0	5
TAP	14	0	6
TAP	15	0	6
TAP	16	0	0
TAP	16	0	7
XTP	17	0	0
XTP	17	0	7
TAP	18	0	7
TAP	18	192	7
TAP	19	0	7
TAP	20	0	6
TAP	20	192	6
TAP	21	0	6
TAP	22	0	5
TAP	22	192	5
TAP	23	0	5
TAP	24	0	4
TAP	24	192	4
TAP	25	0	3
TAP	25	0	4
TAP	26	0	3
TAP	26	192	3
TAP	27	0	3
TAP	28	0	2
TAP	28	192	2
TAP	29	0	2
TAP	30	0	1
TAP	30	192	1
TAP	31	0	1
TAP	32	0	0
TAP	32	192	0
BRK	33	0	0
BRK	33	0	7
STR	34	0	6
SI_	34	0	6	96	288	2
STR	36	0	1
SI_	36	0	1	96	288	5
STR	38	0	7
SI_	38	0	7	96	288	3
TAP	40	0	2
TAP	41	0	1
BRK	42	0	0
BRK	43	0	7
TAP	43	96	7
TAP	43	192	7
TAP	44	0	6
TAP	45	0	5
TAP	45	96	5
TAP	45	192	5
TAP	46	0	4
TAP	47	0	3
TAP	47	96	3
TAP	47	192	3
TAP	48	0	2
TAP	49	0	1
TAP	49	96	1
TAP	49	192	1
XTP	50	0	0
XTP	50	0	7
TAP	51	0	0
TAP	51	192	0
TAP	52	0	1
TAP	52	192	1
TAP	53	0	2
TAP	53	192	2
TAP	54	0	3
TAP	54	0	4
TAP	55	0	4
TAP	55	192	4
TAP	56	0	5
TAP	56	192	5
TAP	57	0	6
TAP	57	192	6
TAP	58	0	0
TAP	58	0	7
STR	59	0	0
SI_	59	0	0	96	288	3
STR	59	0	7
SI_	59	0	7	96	288	4
HLD	61	0	2	192
TAP	62	0	2
TAP	62	192	2
HLD	63	0	3	192
TAP	64	0	3
TAP	64	192	3
HLD	65	0	4	192
TAP	66	0	4
TAP	66	192	4
HLD	67	0	5	192
TAP	68	0	4
TAP	68	0	5
TTP	69	0	5	E	0	L1
TTP	70	0	4	E	0	L1
TTP	71	0	3	E	0	L1
TTP	72	0	2	E	0	L1
TTP	73	0	1	E	0	L1
TTP	74	0	0	E	0	L1
TTP	75	0	7	E	0	L1
TTP	76	0	6	E	0	L1
TTP	77	0	5	E	0	L1
TTP	78	0	0	C	1	L1
TAP	79	0	0
TAP	79	96	0
TAP	79	192	0
TAP	80	0	1
TAP	80	96	1
TAP	80	192	1
TAP	81	0	2
TAP	81	96	2
TAP	81	192	2
TAP	82	0	3
TAP	82	96	3
TAP	82	192	3
TAP	82	192	4
TAP	83	0	4
TAP	83	96	4
TAP	83	192	4
TAP	84	0	5
TAP	84	96	5
TAP	84	192	5
TAP	85	0	6
TAP	85	96	6
TAP	85	192	6
TAP	86	0	7
TAP	86	96	7
TAP	86	192	0
TAP	86	192	7
HLD	87	0	6	192
HLD	88	0	5	192
TAP	89	0	4
TAP	89	96	4
TAP	89	192	4
TAP	89	192	5
TAP	90	0	3
TAP	90	96	3
TAP	90	192	2
TAP	90	192	3
HLD	91	0	2	192
HLD	92	0	1	192
TAP	93	0	0
TAP	93	0	7
TTP	94	0	1	E	0	L1
TTP	94	0	7	E	0	L1
TTP	95	0	1	B	0	L1
TTP	95	0	6	B	0	L1
TTP	96	0	2	B	0	L1
TTP	96	0	5	B	0	L1
THO	97	0	0	336	C	1	L1
BRK	99	0	0
TAP	99	192	0
TAP	100	0	1
TAP	100	192	1
TAP	101	0	2
TAP	101	192	2
TAP	102	0	3
TAP	102	192	3
TAP	103	0	4
TAP	103	192	4
TAP	104	0	5
TAP	104	192	5
TAP	105	0	6
TAP	105	192	6
XTP	106	0	0
XTP	106	0	7
XTP	106	192	0
XTP	106	192	7

T_REC_TAP	131
T_REC_BRK	5
T_REC_XTP	8
T_REC_HLD	8
T_REC_XHO	0
T_REC_STR	5
T_REC_BST	0
T_REC_XST	0
T_REC_TTP	16
T_REC_THO	1
T_REC_SLD	5
T_REC_ALL	179
T_NUM_TAP	160
T_NUM_BRK	5
T_NUM_HLD	9
T_NUM_SLD	5
T_NUM_ALL	179
T_JUDGE_TAP	165
T_JUDGE_HLD	39
T_JUDGE_SLD	5
T_JUDGE_ALL	209
TTM_EACHPAIRS	18
TTM_SCR_TAP	80000
TTM_SCR_BRK	13000
TTM_SCR_HLD	9000
TTM_SCR_SLD	7500
TTM_SCR_ALL	109500
TTM_SCR_S	105750
TTM_SCR_SS	109000
TTM_RAT_ACV	10045

