VERSION	0.00.00	1.03.00
FES_MODE	0
BPM_DEF	200.000	200.000	200.000	200.000
MET_DEF	4	4
RESOLUTION	384
CLK_DEF	384
COMPATIBLE_CODE	MA2

BPM	0	0	200.000
MET	0	0	4	4

TAP	9	240	3
TAP	9	288	3
TAP	9	288	4
TAP	10	0	2
TAP	10	0	5
TAP	10	96	5
TAP	10	144	3
TAP	10	192	5
TAP	10	288	4
TAP	10	288	5
TAP	11	0	5
TAP	11	48	4
TAP	11	96	5
TAP	11	192	4
TAP	11	192	5
TAP	11	288	3
TAP	11	288	5
TAP	12	0	2
TAP	12	0	5
TAP	12	96	5
TAP	12	144	4
TAP	12	192	5
TAP	12	288	3
TAP	12	288	5
TAP	13	0	5
TAP	13	48	3
TAP	13	96	5
TAP	13	192	3
TAP	13	192	5
TAP	13	288	4
TAP	13	288	5
TAP	14	0	2
TAP	14	0	5
TAP	14	96	5
TAP	14	144	3
TAP	14	192	5
TAP	14	288	3
TAP	14	288	5
TAP	15	0	4
TAP	15	0	5
TAP	15	96	5
TAP	15	144	3
TAP	15	192	5
TAP	15	288	3
TAP	15	288	5
TAP	16	0	4
TAP	16	0	5
TAP	16	96	5
TAP	16	192	5
TAP	16	288	5
TAP	17	0	4
TAP	17	0	5
TAP	17	96	3
TAP	17	96	5
TAP	17	192	2
TAP	17	192	5
TAP	17	288	1
TAP	17	288	5
TAP	18	0	1
TAP	18	0	4
TAP	18	96	1
TAP	18	96	4
TAP	18	192	2
TAP	18	192	4
TAP	18	288	4
STR	19	0	1
SI_	19	0	1	96	48	3
TAP	19	0	4
TAP	19	96	4
TAP	19	192	4
TAP	19	288	3
TAP	19	288	4
TAP	20	0	3
TAP	20	0	4
TAP	20	96	3
TAP	20	96	4
TAP	20	192	2
TAP	20	192	4
TAP	20	288	4
STR	21	0	0
SI_	21	0	0	96	48	3
TAP	21	0	4
TAP	21	96	4
TAP	21	192	4
TAP	21	288	3
TAP	21	288	4
TAP	22	0	2
TAP	22	0	4
STR	22	96	1
SI_	22	96	1	96	48	6
TAP	22	96	4
TAP	22	192	4
TAP	22	288	4
TAP	23	0	4
STR	23	0	6
SI_	23	0	6	96	48	1
TAP	23	96	4
TAP	23	192	4
TAP	23	288	1
TAP	23	288	4
TAP	24	0	1
TAP	24	0	4
TAP	24	96	2
TAP	24	96	4
TAP	24	192	3
TAP	24	192	4
TAP	24	288	3
TAP	24	288	4
TAP	25	0	4
TAP	25	96	4
TAP	25	192	3
TAP	25	192	4
TAP	25	288	3
TAP	25	288	4
TAP	26	0	3
TAP	26	0	5
TAP	26	96	3
TAP	26	96	5
TAP	26	192	3
TAP	26	192	4
TAP	26	288	3
TAP	27	0	3
STR	27	0	6
SI_	27	0	6	96	48	4
TAP	27	96	3
TAP	27	192	3
TAP	27	288	3
TAP	27	288	4
TAP	28	0	3
TAP	28	0	4
TAP	28	96	3
TAP	28	96	4
TAP	28	192	3
TAP	28	192	5
TAP	28	288	3
TAP	29	0	3
STR	29	0	6
SI_	29	0	6	96	48	2
TAP	29	96	3
TAP	29	192	3
TAP	29	288	3
TAP	29	288	4
TAP	30	0	3
TAP	30	0	5
TAP	30	96	3
TAP	30	96	6
TAP	30	192	3
TAP	30	192	7
TAP	30	288	3
TAP	31	0	3
STR	31	0	6
SI_	31	0	6	96	48	1
TAP	31	96	3
TAP	31	192	3
TAP	31	288	3
TAP	31	288	6
TAP	32	0	3
TAP	32	0	6
TAP	32	96	3
TAP	32	96	5
TAP	32	192	3
TAP	32	192	4
TAP	32	288	3
HLD	32	288	4	384
TTP	33	0	4	E	0	M1
TTP	33	96	3	E	0	M1
TTP	33	192	2	E	0	M1
TTP	33	288	1	E	0	M1
STR	34	0	0
SI_	34	0	0	96	48	4
TAP	34	0	5
TAP	34	96	6
HLD	34	144	6	96
TAP	34	240	3
TAP	34	288	3
STR	34	288	5
SI_	34	288	5	96	48	2
STR	35	0	0
SI_	35	0	0	96	48	4
STR	35	96	6
SI_	35	96	6	96	48	3
STR	35	192	2
SI_	35	192	2	96	48	5
TAP	35	288	6
TAP	36	0	2
STR	36	0	7
SI_	36	0	7	96	48	3
TAP	36	96	1
HLD	36	144	1	96
TAP	36	240	3
TAP	36	288	2
TAP	36	288	4
STR	37	0	0
SCL	37	0	0	96	48	5
STR	37	0	1
SCR	37	0	1	96	48	4
STR	37	192	6
SCL	37	192	6	96	48	3
STR	37	192	7
SCR	37	192	7	96	48	2
STR	38	0	0
SI_	38	0	0	96	48	4
TAP	38	0	5
TAP	38	96	6
HLD	38	144	6	96
TAP	38	240	3
TAP	38	288	3
STR	38	288	5
SI_	38	288	5	96	48	2
STR	39	0	0
SI_	39	0	0	96	48	4
STR	39	96	6
SI_	39	96	6	96	48	3
TAP	39	192	2
TAP	39	288	2
TAP	39	288	6
STR	40	0	5
SCL	40	0	5	96	48	2
TAP	40	96	0
STR	40	192	1
SUR	40	192	1	96	48	5
TAP	40	288	7
STR	41	0	6
SCR	41	0	6	96	48	1
TAP	41	96	3
TAP	41	192	4
TAP	41	288	3
TAP	41	288	5
HLD	42	0	2	96
TAP	42	96	3
TAP	42	144	3
TAP	42	192	0
TAP	42	240	0
STR	42	288	6
SI_	42	288	6	96	48	1
STR	43	0	2
SI_	43	0	2	96	48	5
STR	43	96	7
SI_	43	96	7	96	48	4
TAP	43	192	0
TAP	43	288	2
TAP	43	288	6
HLD	44	0	5	96
TAP	44	96	4
TAP	44	144	4
TAP	44	192	7
TAP	44	240	7
STR	44	288	1
SI_	44	288	1	96	48	6
TAP	45	0	4
STR	45	96	3
SV_	45	96	3	96	48	0
STR	45	96	5
SV_	45	96	5	96	48	0
TAP	45	288	2
TAP	45	288	6
HLD	46	0	5	96
TAP	46	96	4
TAP	46	144	4
TAP	46	192	7
TAP	46	240	7
TAP	46	288	2
TAP	46	336	2
TAP	47	0	5
TAP	47	48	3
HLD	47	96	4	96
TAP	47	192	3
TAP	47	288	2
TAP	47	288	5
STR	48	0	0
SI_	48	0	0	96	48	3
XTP	48	96	0
STR	48	96	7
SI_	48	96	7	96	48	4
TAP	48	192	0
XTP	48	192	7
TAP	48	288	0
TAP	48	288	7
TAP	48	336	6
TAP	49	0	3
TAP	49	0	5
STR	49	96	2
SI_	49	96	2	96	48	7
STR	49	96	3
SI_	49	96	3	96	48	6
XTP	49	192	2
XTP	49	192	3
BRK	49	288	1
BRK	49	288	4
TAP	50	0	5
TAP	50	48	4
TAP	50	96	2
STR	50	96	3
SI_	50	96	3	96	48	7
TAP	50	192	0
TAP	50	240	0
STR	50	288	1
SI_	50	288	1	96	48	4
STR	50	288	6
SI_	50	288	6	96	48	2
TAP	51	0	1
TAP	51	0	6
TAP	51	96	1
TAP	51	96	5
TAP	51	192	4
TAP	51	240	4
TAP	51	288	2
TAP	51	288	6
STR	52	0	0
SI_	52	0	0	96	48	4
STR	52	0	7
SI_	52	0	7	96	48	3
TAP	52	96	0
TAP	52	96	7
STR	52	192	0
SCR	52	192	0	96	48	3
STR	52	192	7
SCL	52	192	7	96	48	4
TAP	52	288	0
TAP	52	288	7
TAP	53	0	0
TAP	53	0	7
TTP	53	96	3	B	0	M1
TTP	53	96	3	E	0	M1
TTP	53	96	4	B	0	M1
TTP	53	96	5	E	0	M1
TAP	53	192	7
TAP	53	240	7
TAP	53	288	2
TAP	53	288	6
STR	54	0	1
SI_	54	0	1	96	48	5
TAP	54	96	1
STR	54	96	7
SI_	54	96	7	96	48	3
STR	54	192	0
SI_	54	192	0	96	48	4
TAP	54	192	7
TAP	54	288	0
STR	54	288	6
SI_	54	288	6	96	48	2
TAP	55	0	0
TAP	55	48	0
TAP	55	96	1
TAP	55	96	5
TAP	55	192	3
TAP	55	192	6
TAP	55	240	5
TAP	55	288	1
TAP	55	288	4
STR	56	0	2
SI_	56	0	2	96	48	6
STR	56	96	5
SI_	56	96	5	96	48	1
STR	56	192	0
SLR	56	192	0	96	96	4
STR	56	288	4
SSL	56	288	4	96	96	0
HLD	57	0	7	96
TAP	57	192	0
TAP	57	216	7
TAP	57	240	0
TAP	57	264	7
BRK	57	288	1
TAP	58	0	2
TAP	58	48	3
STR	58	96	4
SI_	58	96	4	96	48	0
TAP	58	96	5
TAP	58	192	7
TAP	58	240	7
STR	58	288	1
SI_	58	288	1	96	48	5
STR	58	288	6
SI_	58	288	6	96	48	3
TAP	59	0	1
TAP	59	0	6
TAP	59	96	2
TAP	59	96	6
TAP	59	192	3
TAP	59	240	3
TAP	59	288	1
TAP	59	288	5
STR	60	0	7
SI_	60	0	7	96	48	4
STR	60	96	0
SI_	60	96	0	96	48	3
STR	60	192	6
SI_	60	192	6	96	48	4
STR	60	288	1
SI_	60	288	1	96	48	3
TAP	61	0	7
TAP	61	48	7
TAP	61	96	2
TAP	61	96	6
TAP	61	192	1
TAP	61	192	4
TAP	61	240	2
TAP	61	288	3
TAP	61	288	6
STR	62	0	2
SI_	62	0	2	96	48	0
STR	62	96	5
SI_	62	96	5	96	48	7
STR	62	192	3
SI_	62	192	3	96	48	0
STR	62	288	4
SI_	62	288	4	96	48	7
TAP	63	0	3
TAP	63	96	1
TAP	63	96	5
TAP	63	192	0
TAP	63	240	0
STR	63	288	1
SI_	63	288	1	96	48	5
TAP	63	288	7
STR	64	0	0
SI_	64	0	0	96	48	4
STR	64	96	7
SI_	64	96	7	96	48	3
STR	64	192	6
SI_	64	192	6	96	48	2
HLD	64	288	0	96
BRK	65	0	7
BRK	65	96	2
BRK	65	96	6
TAP	65	192	1
TAP	65	192	3
TAP	65	240	2
TAP	65	288	4
TAP	65	288	5
TAP	65	336	6
STR	66	0	0
SI_	66	0	0	96	576	3
TAP	66	0	7
STR	68	0	7
SI_	68	0	7	96	576	4
STR	70	0	0
SI_	70	0	0	96	576	3
STR	72	0	7
SI_	72	0	7	96	576	4
TAP	74	0	3
HLD	74	0	5	96
TAP	74	144	3
HLD	74	144	5	96
TAP	74	288	3
TAP	74	288	5
HLD	75	0	2	96
TAP	75	0	4
HLD	75	144	2	96
TAP	75	144	4
TAP	75	288	2
TAP	75	288	4
TAP	76	0	3
HLD	76	0	5	96
TAP	76	144	3
HLD	76	144	5	96
TAP	76	288	3
TAP	76	288	5
TTP	77	0	0	C	0	M1
TTP	77	96	0	E	0	M1
TTP	77	192	2	E	0	M1
TTP	77	192	6	E	0	M1
HLD	78	0	2	96
TAP	78	0	4
HLD	78	144	2	96
TAP	78	144	4
TAP	78	288	2
TAP	78	288	4
TAP	79	0	3
HLD	79	0	5	96
TAP	79	144	3
HLD	79	144	5	96
TAP	79	288	3
TAP	79	288	5
HLD	80	0	2	96
TAP	80	0	4
HLD	80	144	2	96
TAP	80	144	4
HLD	80	288	2	96
HLD	80	288	4	96
TAP	81	288	3
TAP	81	288	4
TAP	82	0	2
TAP	82	0	5
TAP	82	96	2
TAP	82	192	2
TAP	82	240	3
TAP	82	288	2
TAP	83	0	2
TAP	83	48	4
TAP	83	96	2
TAP	83	192	2
TAP	83	240	3
TAP	83	288	2
TAP	84	0	2
TAP	84	0	4
TAP	84	96	2
TAP	84	192	2
TAP	84	240	4
TAP	84	288	2
TAP	84	336	5
TAP	85	0	2
TAP	85	48	3
TAP	85	96	2
TAP	85	144	4
TAP	85	192	2
TAP	85	240	3
TAP	85	288	2
TAP	85	336	3
TAP	86	0	2
TAP	86	96	2
TAP	86	192	2
TAP	86	240	3
TAP	86	288	2
TAP	87	0	2
TAP	87	48	4
TAP	87	96	2
TAP	87	192	2
TAP	87	240	4
TAP	87	288	2
TAP	88	0	2
TAP	88	0	5
TAP	88	96	2
TAP	88	192	2
TAP	88	240	3
TAP	88	288	2
STR	88	288	4
SCR	88	288	4	96	192	3
BRK	89	288	1
BRK	89	288	6
TAP	90	0	2
TAP	90	48	3
STR	90	96	4
SI_	90	96	4	96	48	0
TAP	90	96	5
TAP	90	192	7
TAP	90	240	7
STR	90	288	1
SI_	90	288	1	96	48	5
STR	90	288	6
SI_	90	288	6	96	48	3
TAP	91	0	1
TAP	91	0	6
TAP	91	96	2
TAP	91	96	6
TAP	91	192	3
TAP	91	240	3
TAP	91	288	1
TAP	91	288	5
STR	92	0	7
SI_	92	0	7	96	48	4
STR	92	96	0
SI_	92	96	0	96	48	3
STR	92	192	6
SI_	92	192	6	96	48	4
STR	92	288	1
SI_	92	288	1	96	48	3
TAP	93	0	7
TAP	93	48	7
TAP	93	96	2
TAP	93	96	6
TAP	93	192	1
TAP	93	192	4
TAP	93	240	5
TAP	93	288	2
TAP	93	288	6
STR	94	0	1
SI_	94	0	1	96	48	6
STR	94	0	3
SI_	94	0	3	96	48	5
XTP	94	96	1
XTP	94	96	3
TAP	94	192	7
TAP	94	288	3
TAP	94	288	7
STR	95	0	4
SI_	95	0	4	96	48	2
STR	95	0	6
SI_	95	0	6	96	48	1
XTP	95	96	4
XTP	95	96	6
TAP	95	192	0
TAP	95	288	0
TAP	95	288	3
STR	96	0	6
SCR	96	0	6	96	96	1
STR	96	96	1
SCR	96	96	1	96	96	4
STR	96	192	4
SCR	96	192	4	96	96	7
STR	96	288	7
SSR	96	288	7	96	96	3
BRK	97	0	0
TAP	97	192	0
TAP	97	216	7
TAP	97	240	0
TAP	97	264	7
BRK	97	288	1
TAP	98	0	2
TAP	98	48	3
STR	98	96	4
SI_	98	96	4	96	48	0
TAP	98	96	5
TAP	98	192	7
TAP	98	240	7
STR	98	288	2
SI_	98	288	2	96	48	7
STR	98	288	5
SI_	98	288	5	96	48	1
TAP	99	0	2
TAP	99	0	5
TAP	99	96	0
TAP	99	96	6
TAP	99	192	4
TAP	99	240	4
TAP	99	288	2
TAP	99	288	6
STR	100	0	7
SI_	100	0	7	96	48	4
STR	100	96	0
SI_	100	96	0	96	48	3
XTP	100	96	7
XTP	100	192	0
STR	100	192	6
SI_	100	192	6	96	48	4
STR	100	288	1
SI_	100	288	1	96	48	3
XTP	100	288	6
XTP	101	0	1
TAP	101	0	7
TAP	101	48	7
TAP	101	96	2
TAP	101	96	6
TAP	101	192	3
TAP	101	192	4
STR	101	288	0
SI_	101	288	0	96	48	4
STR	101	288	6
SI_	101	288	6	96	48	3
XTP	102	0	0
XTP	102	0	6
STR	102	96	1
SI_	102	96	1	96	48	4
STR	102	96	5
SI_	102	96	5	96	48	0
XTP	102	192	1
XTP	102	192	5
STR	102	288	1
SCR	102	288	1	96	48	3
STR	102	288	6
SCL	102	288	6	96	48	4
XTP	103	0	1
XTP	103	0	6
STR	103	96	1
SV_	103	96	1	96	48	6
STR	103	96	5
SCL	103	96	5	96	48	2
XTP	103	192	1
XTP	103	192	5
STR	103	288	3
SI_	103	288	3	96	48	0
STR	103	288	5
SV_	103	288	5	96	48	7
BRK	104	0	3
BRK	104	0	5
STR	104	96	3
SV_	104	96	3	96	48	0
STR	104	96	4
SI_	104	96	4	96	48	7
BRK	104	192	3
BRK	104	192	4
STR	104	288	2
SI_	104	288	2	96	48	0
STR	104	288	4
SUL	104	288	4	96	48	7
BRK	105	0	2
BRK	105	0	4
STR	105	96	3
SCL	105	96	3	96	48	0
STR	105	96	4
SCR	105	96	4	96	48	7
BRK	105	192	3
BRK	105	192	4
STR	105	288	3
SI_	105	288	3	96	48	0
STR	105	288	4
SI_	105	288	4	96	48	7
BRK	106	0	3
BRK	106	0	4
TAP	106	240	2
STR	106	288	1
SI_	106	288	1	96	48	5
TAP	106	288	3
TAP	107	0	1
STR	107	0	6
SI_	107	0	6	96	48	1
STR	107	96	3
SI_	107	96	3	96	48	0
TAP	107	96	6
TAP	107	192	3
STR	107	192	7
SI_	107	192	7	96	48	4
TAP	107	288	1
TAP	107	288	7
TAP	108	0	3
TAP	108	0	5
TAP	108	96	2
TAP	108	144	1
TAP	108	144	3
TAP	108	240	5
TAP	108	288	4
STR	108	288	6
SI_	108	288	6	96	48	2
STR	109	0	1
SI_	109	0	1	96	48	5
TAP	109	0	6
TAP	109	96	1
STR	109	96	7
SI_	109	96	7	96	48	4
STR	109	192	0
SI_	109	192	0	96	48	3
TAP	109	192	7
TAP	109	288	0
TAP	109	288	7
TAP	110	0	2
TAP	110	0	6
TAP	110	96	5
TAP	110	144	4
TAP	110	144	6
TAP	110	240	2
STR	110	288	1
SI_	110	288	1	96	48	5
TAP	110	288	3
TAP	111	0	1
STR	111	0	6
SI_	111	0	6	96	48	2
TAP	111	96	0
TAP	111	96	6
TAP	111	192	7
TAP	111	240	7
TAP	111	288	0
TAP	111	336	6
TAP	112	0	1
TAP	112	0	5
TAP	112	96	0
TAP	112	96	1
TAP	112	144	2
TAP	112	144	7
TAP	112	240	6
TAP	112	240	7
STR	112	288	0
SCR	112	288	0	96	96	4
TAP	112	288	5
STR	113	0	4
SCR	113	0	4	96	96	0
STR	113	96	0
SCR	113	96	0	96	96	4
TAP	113	192	4
BRK	113	288	0
TAP	114	0	3
TAP	114	0	6
TAP	114	96	2
TAP	114	144	1
TAP	114	144	3
TAP	114	240	5
TAP	114	288	4
STR	114	288	6
SI_	114	288	6	96	48	2
STR	115	0	1
SI_	115	0	1	96	48	6
TAP	115	0	6
TAP	115	96	1
STR	115	96	4
SI_	115	96	4	96	48	7
STR	115	192	0
SI_	115	192	0	96	48	3
TAP	115	192	4
TAP	115	288	0
TAP	115	288	6
TAP	116	0	2
TAP	116	0	4
TAP	116	96	5
TAP	116	144	4
TAP	116	144	6
TAP	116	240	2
STR	116	288	1
SI_	116	288	1	96	48	5
TAP	116	288	3
TAP	117	0	1
STR	117	0	6
SI_	117	0	6	96	48	2
STR	117	96	0
SI_	117	96	0	96	48	3
TAP	117	96	6
TAP	117	192	0
STR	117	192	7
SI_	117	192	7	96	48	4
TAP	117	288	0
TAP	117	288	7
TAP	118	0	1
TAP	118	0	5
TAP	118	96	2
TAP	118	144	1
TAP	118	144	3
TAP	118	240	5
TAP	118	288	4
STR	118	288	6
SI_	118	288	6	96	48	2
STR	119	0	1
SI_	119	0	1	96	48	5
TAP	119	0	6
TAP	119	96	1
TAP	119	96	7
TAP	119	192	0
TAP	119	240	0
TAP	119	288	7
TAP	119	336	1
TAP	120	0	2
TAP	120	0	6
TAP	120	96	6
TAP	120	96	7
TAP	120	144	0
TAP	120	144	5
TAP	120	240	0
TAP	120	240	1
TAP	120	288	2
STR	120	288	7
SCL	120	288	7	96	96	3
STR	121	0	3
SCL	121	0	3	96	96	7
STR	121	96	7
SCL	121	96	7	96	96	3
TTP	121	192	0	C	1	M1
TAP	122	0	2
TAP	122	0	5
TAP	122	96	5
TAP	122	144	3
TAP	122	192	5
TAP	122	288	4
TAP	122	288	5
TAP	123	0	5
TAP	123	48	4
TAP	123	96	5
TAP	123	192	4
TAP	123	192	5
TAP	123	288	3
TAP	123	288	5
TAP	124	0	2
TAP	124	0	5
TAP	124	96	5
TAP	124	144	4
TAP	124	192	5
TAP	124	288	3
TAP	124	288	5
TAP	125	0	5
TAP	125	48	3
TAP	125	96	5
TAP	125	192	3
TAP	125	192	5
TAP	125	288	4
TAP	125	288	5
TAP	126	0	2
TAP	126	0	5
TAP	126	96	5
TAP	126	144	3
TAP	126	192	5
TAP	126	288	3
TAP	126	288	5
TAP	127	0	4
TAP	127	0	5
TAP	127	96	5
TAP	127	144	3
TAP	127	192	5
TAP	127	288	3
TAP	127	288	5
TAP	128	0	4
TAP	128	0	5
TAP	128	96	5
TAP	128	192	5
TAP	128	288	5
TAP	129	0	4
TAP	129	0	5
TAP	129	96	3
TAP	129	96	5
TAP	129	192	2
TAP	129	192	5
TAP	129	288	1
TAP	129	288	5

T_REC_TAP	541
T_REC_BRK	21
T_REC_XTP	20
T_REC_HLD	24
T_REC_XHO	0
T_REC_STR	135
T_REC_BST	0
T_REC_XST	0
T_REC_TTP	13
T_REC_THO	0
T_REC_SLD	135
T_REC_ALL	889
T_NUM_TAP	709
T_NUM_BRK	21
T_NUM_HLD	24
T_NUM_SLD	135
T_NUM_ALL	889
T_JUDGE_TAP	730
T_JUDGE_HLD	54
T_JUDGE_SLD	135
T_JUDGE_ALL	919
TTM_EACHPAIRS	239
TTM_SCR_TAP	354500
TTM_SCR_BRK	54600
TTM_SCR_HLD	24000
TTM_SCR_SLD	202500
TTM_SCR_ALL	635600
TTM_SCR_S	614500
TTM_SCR_SS	633500
TTM_RAT_ACV	10033

