VERSION	0.00.00	1.03.00
FES_MODE	0
BPM_DEF	200.000	200.000	200.000	200.000
MET_DEF	4	4
RESOLUTION	384
CLK_DEF	384
COMPATIBLE_CODE	MA2

BPM	0	0	200.000
MET	0	0	4	4

HLD	2	0	2	384
HLD	3	0	3	384
HLD	4	0	4	768
HLD	6	0	5	384
HLD	7	0	4	384
HLD	8	0	3	672
TAP	9	288	2
TAP	10	0	1
TAP	10	0	4
TAP	10	96	4
TAP	10	192	3
TAP	10	288	4
TAP	11	0	3
TAP	11	0	6
TAP	11	96	3
TAP	11	192	4
TAP	11	288	3
TAP	12	0	2
TAP	12	0	4
TAP	12	96	4
TAP	12	192	5
TAP	12	288	4
TAP	13	0	3
TAP	13	96	2
TTP	13	192	3	E	0	M1
TTP	13	288	5	E	0	M1
TAP	14	0	3
TAP	14	0	6
TAP	14	96	3
TAP	14	192	4
TAP	14	288	3
TAP	15	0	1
TAP	15	0	4
TAP	15	96	4
TAP	15	192	3
TAP	15	288	4
TAP	16	0	3
TAP	16	0	5
TAP	16	96	3
TAP	16	192	4
TAP	16	288	3
TAP	17	0	2
TAP	17	0	4
TTP	17	96	3	E	0	M1
TTP	17	192	0	C	0	M1
TTP	17	288	7	E	0	M1
XTP	18	0	0
HLD	18	0	5	96
TAP	18	96	4
TAP	18	192	5
TAP	18	288	4
TAP	18	288	6
TAP	19	0	3
TAP	19	48	3
HLD	19	96	4	192
TAP	19	288	3
HLD	20	0	2	96
TAP	20	0	7
TAP	20	96	3
TAP	20	192	2
TAP	20	288	1
TAP	20	288	3
TAP	21	0	4
TAP	21	48	4
HLD	21	96	3	192
TAP	21	288	4
TAP	22	0	5
TAP	22	96	4
TAP	22	96	5
TAP	22	192	2
TAP	22	288	2
TAP	22	288	3
TAP	23	0	4
TAP	23	48	4
HLD	23	96	3	192
TAP	23	288	4
TAP	24	0	3
TAP	24	0	4
TAP	24	96	2
TAP	24	96	5
STR	24	192	1
SLR	24	192	1	96	192	0
STR	24	192	6
SLL	24	192	6	96	192	7
TAP	25	192	1
TAP	25	192	6
TAP	25	288	3
TAP	25	288	4
XTP	26	0	2
HLD	26	0	6	96
TAP	26	96	7
TAP	26	192	6
TAP	26	288	0
TAP	26	288	5
TAP	27	0	3
TAP	27	48	3
HLD	27	96	4	192
TAP	27	288	3
HLD	28	0	1	96
TAP	28	0	5
TAP	28	96	0
TAP	28	192	1
TAP	28	288	2
TAP	28	288	7
TAP	29	0	4
TAP	29	48	4
HLD	29	96	3	192
TAP	29	288	4
TAP	30	0	6
TAP	30	96	6
TAP	30	96	7
TAP	30	192	1
TAP	30	288	0
TAP	30	288	1
TAP	31	0	7
TAP	31	48	7
HLD	31	96	0	192
TAP	31	288	7
TAP	32	0	0
TAP	32	0	7
TAP	32	96	1
TAP	32	96	6
TAP	32	192	2
TAP	32	192	5
TAP	32	288	3
TAP	32	288	4
TTP	33	0	2	E	0	M1
TTP	33	96	3	E	0	M1
TTP	33	192	5	E	0	M1
TTP	33	288	6	E	0	M1
XHO	34	0	1	144
HLD	34	144	3	144
TAP	34	288	2
TAP	35	0	3
TAP	35	96	4
TAP	35	192	5
TAP	35	240	5
TAP	35	288	4
XHO	36	0	6	144
HLD	36	144	4	144
TAP	36	288	5
TAP	37	0	4
TAP	37	96	3
TAP	37	192	2
TAP	37	240	2
TAP	37	288	3
XHO	38	0	1	144
HLD	38	144	3	144
TAP	38	288	2
TAP	39	0	3
TAP	39	96	4
TAP	39	192	5
TAP	39	240	5
TAP	39	288	4
STR	40	0	6
SUL	40	0	6	96	192	1
STR	41	0	2
SCR	41	0	2	96	144	5
HLD	42	0	5	96
TAP	42	96	4
HLD	42	192	6	96
TAP	42	288	5
TAP	43	0	4
TAP	43	96	3
TAP	43	192	1
TAP	43	240	1
XTP	43	288	0
HLD	44	0	2	96
TAP	44	96	3
HLD	44	192	1	96
TAP	44	288	2
TAP	45	0	3
TAP	45	96	4
TAP	45	192	6
TAP	45	240	6
XTP	45	288	7
HLD	46	0	5	96
TAP	46	96	4
HLD	46	192	2	96
TAP	46	288	3
HLD	47	0	4	96
TAP	47	96	3
TAP	47	144	3
XTP	47	192	4
XTP	47	288	1
XTP	47	288	6
TAP	48	0	6
TAP	48	48	6
TAP	48	96	7
TAP	48	192	1
TAP	48	240	1
TAP	48	288	0
TTP	49	0	6	B	0	M1
TTP	49	0	7	E	0	M1
TTP	49	96	2	B	0	M1
TTP	49	96	3	E	0	M1
TTP	49	192	0	C	1	M1
TTP	49	192	1	E	0	M1
TTP	49	192	5	E	0	M1
STR	50	0	7
SI_	50	0	7	96	96	3
TAP	50	48	7
TAP	50	96	0
STR	50	192	1
SI_	50	192	1	96	96	4
TAP	50	240	1
TAP	50	288	5
TAP	51	0	6
XHO	51	96	5	96
XHO	51	96	7	96
TAP	51	288	1
TAP	51	288	3
STR	52	0	2
SI_	52	0	2	96	96	7
TAP	52	48	2
TAP	52	96	4
STR	52	192	6
SI_	52	192	6	96	96	3
TAP	52	240	6
TAP	52	288	0
TAP	53	0	1
HLD	53	96	2	96
TAP	53	192	3
XTP	53	288	0
XTP	53	288	6
STR	54	0	7
SI_	54	0	7	96	96	3
TAP	54	48	7
TAP	54	96	0
STR	54	192	1
SI_	54	192	1	96	96	4
TAP	54	240	1
TAP	54	288	6
TAP	55	0	5
XHO	55	96	4	96
XHO	55	96	6	96
TAP	55	288	0
TAP	55	288	1
TAP	56	0	2
TAP	56	0	3
TAP	56	96	4
TAP	56	96	5
TAP	56	192	6
TAP	56	192	7
STR	56	288	0
SI_	56	288	0	96	96	5
STR	56	288	1
SI_	56	288	1	96	96	4
TAP	57	192	2
TAP	57	192	7
BRK	57	288	1
BRK	57	288	5
STR	58	0	0
SI_	58	0	0	96	96	4
TAP	58	48	0
TAP	58	96	7
STR	58	192	6
SI_	58	192	6	96	96	3
TAP	58	240	6
TAP	58	288	2
TAP	59	0	1
XHO	59	96	0	96
XHO	59	96	2	96
TAP	59	288	5
TAP	59	288	7
STR	60	0	0
SI_	60	0	0	96	96	4
TAP	60	48	0
TAP	60	96	7
STR	60	192	6
SI_	60	192	6	96	96	3
TAP	60	240	6
TAP	60	288	1
TAP	61	0	2
XHO	61	96	1	96
XHO	61	96	3	96
TAP	61	288	4
TAP	61	288	6
STR	62	0	5
SI_	62	0	5	96	96	0
TAP	62	48	5
TAP	62	96	3
STR	62	192	1
SI_	62	192	1	96	96	4
TAP	62	240	1
TAP	62	288	7
TAP	63	0	6
HLD	63	96	5	96
TAP	63	192	4
XTP	63	288	1
XTP	63	288	7
TAP	64	0	4
TAP	64	0	5
TAP	64	96	2
TAP	64	96	3
TAP	64	192	0
TAP	64	192	1
STR	64	288	6
SI_	64	288	6	96	96	3
STR	64	288	7
SI_	64	288	7	96	96	2
TAP	65	192	0
TAP	65	192	5
BRK	65	288	2
BRK	65	288	6
HLD	66	0	1	384
HLD	67	0	3	384
HLD	68	0	4	384
HLD	69	0	6	384
HLD	70	0	4	384
HLD	71	0	3	384
THO	72	0	0	384	C	0	M1
HLD	74	0	5	384
TTP	74	192	4	B	0	M1
HLD	75	0	2	384
TTP	75	192	3	B	0	M1
HLD	76	0	4	384
TTP	76	192	4	E	0	M1
TAP	77	0	3
TAP	77	96	4
TAP	77	192	2
TAP	77	192	5
STR	78	0	5
SCL	78	0	5	96	192	2
STR	79	0	2
SCR	79	0	2	96	192	5
TAP	80	0	6
TAP	80	96	5
TAP	80	192	4
TAP	80	288	3
TAP	81	0	2
TAP	81	96	1
TTP	81	192	0	C	0	M1
TTP	81	192	0	E	0	M1
TTP	81	192	4	E	0	M1
HLD	82	0	2	192
HLD	82	192	3	192
TAP	83	0	4
TAP	83	96	5
TAP	83	192	3
TAP	83	192	6
HLD	84	0	5	192
HLD	84	192	4	192
TAP	85	0	3
TAP	85	96	2
TAP	85	192	1
TAP	85	192	4
STR	85	288	4
SCR	85	288	4	96	192	7
TAP	86	288	3
STR	87	0	3
SCL	87	0	3	96	192	0
TAP	88	0	2
TAP	88	96	3
TAP	88	192	4
TAP	88	288	5
STR	89	0	3
SCL	89	0	3	96	96	0
STR	89	0	4
SCR	89	0	4	96	96	7
BRK	89	288	2
BRK	89	288	5
STR	90	0	0
SI_	90	0	0	96	96	4
TAP	90	48	0
TAP	90	96	7
STR	90	192	6
SI_	90	192	6	96	96	3
TAP	90	240	6
TAP	90	288	2
TAP	91	0	1
XHO	91	96	0	96
XHO	91	96	2	96
TAP	91	288	4
TAP	91	288	6
STR	92	0	5
SI_	92	0	5	96	96	0
TAP	92	48	5
TAP	92	96	3
STR	92	192	1
SI_	92	192	1	96	96	4
TAP	92	240	1
TAP	92	288	7
TAP	93	0	6
XHO	93	96	5	96
XTP	93	192	4
XTP	93	288	1
XTP	93	288	7
STR	94	0	0
SCR	94	0	0	96	96	3
STR	94	0	6
SCL	94	0	6	96	96	3
TAP	94	288	0
TAP	94	288	6
STR	95	0	1
SCR	95	0	1	96	96	4
STR	95	0	7
SCL	95	0	7	96	96	4
TAP	95	288	1
TAP	95	288	7
TAP	96	0	4
TAP	96	0	5
TAP	96	96	2
TAP	96	96	3
TAP	96	192	0
TAP	96	192	1
STR	96	288	6
SI_	96	288	6	96	96	3
STR	96	288	7
SI_	96	288	7	96	96	2
TAP	97	192	0
TAP	97	192	5
BRK	97	288	2
BRK	97	288	6
STR	98	0	7
SI_	98	0	7	96	96	3
TAP	98	48	7
TAP	98	96	0
STR	98	192	1
SI_	98	192	1	96	96	4
TAP	98	240	1
TAP	98	288	5
STR	99	0	6
SUL	99	0	6	96	96	2
TAP	99	48	6
TAP	99	96	0
TAP	99	192	1
TAP	99	288	0
TAP	99	288	1
STR	100	0	7
SI_	100	0	7	96	96	3
TAP	100	48	7
TAP	100	96	0
STR	100	192	1
SI_	100	192	1	96	96	4
TAP	100	240	1
TAP	100	288	6
TAP	101	0	5
XHO	101	96	4	96
XHO	101	96	6	96
XTP	101	288	1
XTP	101	288	3
TAP	102	0	3
TAP	102	0	4
XTP	102	96	4
XTP	102	96	6
TAP	102	192	3
TAP	102	192	4
XTP	102	288	0
XTP	102	288	2
TAP	103	0	3
TAP	103	0	4
XTP	103	96	5
XTP	103	96	7
TAP	103	192	3
TAP	103	192	4
XST	103	288	0
SI_	103	288	0	96	48	4
XTP	103	288	1
TAP	104	0	3
XTP	104	96	6
XST	104	96	7
SI_	104	96	7	96	48	3
TAP	104	192	4
XST	104	288	0
SI_	104	288	0	96	48	4
XST	104	288	1
SI_	104	288	1	96	48	3
XST	105	96	6
SI_	105	96	6	96	48	4
XST	105	96	7
SI_	105	96	7	96	48	3
BRK	105	288	0
HLD	106	0	1	96
TAP	106	96	3
HLD	106	144	3	96
TAP	106	240	2
TAP	106	288	2
TAP	107	0	4
TAP	107	96	3
TAP	107	96	5
TAP	107	192	2
TAP	107	288	1
TAP	107	288	3
HLD	108	0	6	96
TAP	108	96	4
HLD	108	144	4	96
TAP	108	240	5
TAP	108	288	5
TAP	109	0	3
TAP	109	96	2
TAP	109	96	4
TAP	109	192	5
TAP	109	288	4
TAP	109	288	6
HLD	110	0	1	96
TAP	110	96	3
HLD	110	144	3	96
TAP	110	240	2
TAP	110	288	2
TAP	111	0	1
TAP	111	0	4
TAP	111	96	3
TAP	111	96	6
TAP	111	192	0
TAP	111	240	0
TAP	111	288	7
TAP	111	336	7
HLD	112	0	1	96
HLD	112	144	0	96
HLD	112	144	7	96
TAP	112	288	6
TAP	112	288	7
TAP	113	0	4
TAP	113	0	5
TAP	113	96	2
TAP	113	96	3
TAP	113	192	0
TAP	113	192	1
XTP	113	288	2
XTP	113	288	7
HLD	114	0	6	96
TAP	114	96	4
HLD	114	144	4	96
TAP	114	240	5
TAP	114	288	5
TAP	115	0	2
TAP	115	96	1
TAP	115	96	3
TAP	115	192	6
TAP	115	192	7
TAP	115	288	0
TAP	115	288	5
HLD	116	0	1	96
TAP	116	96	3
HLD	116	144	3	96
TAP	116	240	2
TAP	116	288	2
TAP	117	0	5
TAP	117	96	4
TAP	117	96	6
TAP	117	192	0
TAP	117	192	1
TAP	117	288	2
TAP	117	288	7
HLD	118	0	6	96
TAP	118	96	4
HLD	118	144	4	96
TAP	118	240	5
TAP	118	288	5
TAP	119	0	3
TAP	119	0	6
TAP	119	96	1
TAP	119	96	4
TAP	119	192	7
TAP	119	240	7
TAP	119	288	0
TAP	119	336	0
HLD	120	0	6	96
HLD	120	144	0	96
HLD	120	144	7	96
TAP	120	288	0
TAP	120	288	1
TAP	121	0	6
TAP	121	0	7
TAP	121	96	3
TAP	121	96	4
TTP	121	192	0	B	0	M1
TTP	121	192	0	C	1	M1
TTP	121	192	1	B	0	M1
TTP	121	192	6	B	0	M1
TTP	121	192	7	B	0	M1
TTP	123	192	2	E	0	M1
TTP	123	288	3	E	0	M1
HLD	124	0	3	576
TTP	125	192	6	E	0	M1
TTP	125	288	5	E	0	M1
HLD	126	0	4	384
HLD	127	0	3	384
HLD	128	0	4	384
TAP	129	0	3
TTP	129	96	4	E	0	M1
TTP	129	192	0	C	0	M1
TTP	129	288	0	E	0	M1

T_REC_TAP	341
T_REC_BRK	9
T_REC_XTP	26
T_REC_HLD	63
T_REC_XHO	16
T_REC_STR	41
T_REC_BST	0
T_REC_XST	6
T_REC_TTP	34
T_REC_THO	1
T_REC_SLD	47
T_REC_ALL	584
T_NUM_TAP	448
T_NUM_BRK	9
T_NUM_HLD	80
T_NUM_SLD	47
T_NUM_ALL	584
T_JUDGE_TAP	457
T_JUDGE_HLD	324
T_JUDGE_SLD	47
T_JUDGE_ALL	828
TTM_EACHPAIRS	107
TTM_SCR_TAP	224000
TTM_SCR_BRK	23400
TTM_SCR_HLD	80000
TTM_SCR_SLD	70500
TTM_SCR_ALL	397900
TTM_SCR_S	385100
TTM_SCR_SS	397000
TTM_RAT_ACV	10022

