VERSION	0.00.00	1.03.00
FES_MODE	0
BPM_DEF	200.000	200.000	200.000	200.000
MET_DEF	4	4
RESOLUTION	384
CLK_DEF	384
COMPATIBLE_CODE	MA2

BPM	0	0	200.000
MET	0	0	4	4

XST	2	0	2
SCL	2	0	2	96	672	5
XST	6	0	5
SCR	6	0	5	96	672	2
XHO	10	0	2	384
HLD	11	0	3	384
HLD	12	0	4	384
XTP	13	0	5
XHO	14	0	5	384
HLD	15	0	4	384
HLD	16	0	3	384
XTP	17	0	2
HLD	18	0	2	384
TAP	19	0	3
HLD	20	0	5	384
TAP	21	0	4
HLD	22	0	2	384
TAP	23	0	3
HLD	24	0	5	192
TAP	25	0	3
TAP	25	0	5
TAP	26	0	2
TAP	26	192	2
TAP	27	0	2
TAP	27	0	3
TAP	28	0	5
TAP	28	192	5
TAP	29	0	4
TAP	29	0	5
TAP	30	0	2
TAP	30	192	2
TAP	31	0	2
TAP	31	0	3
TAP	32	0	4
TAP	32	192	4
TAP	33	0	3
TAP	33	0	5
HLD	34	0	6	192
TAP	34	192	7
TAP	35	0	7
HLD	36	0	1	192
TAP	36	192	0
TAP	37	0	0
HLD	38	0	6	192
TAP	38	192	7
TAP	39	0	7
HLD	40	0	1	192
TAP	40	192	0
TAP	41	0	1
TAP	41	0	7
TAP	42	0	2
TAP	42	96	2
TAP	42	192	2
TAP	42	192	3
TAP	43	0	5
TAP	43	96	5
TAP	43	192	4
TAP	43	192	5
TAP	44	0	2
TAP	44	96	2
TAP	44	192	2
TAP	44	192	3
TAP	45	0	4
TAP	45	96	4
TAP	45	192	3
TAP	45	192	5
TAP	46	0	6
TAP	46	96	6
TAP	46	192	6
TAP	46	192	7
TAP	47	0	1
TAP	47	96	1
TAP	47	192	0
TAP	47	192	1
TAP	48	0	6
TAP	48	96	6
TAP	48	192	6
TAP	48	192	7
XTP	49	0	0
XTP	49	0	7
XTP	49	96	0
XTP	49	96	7
XTP	49	192	1
XTP	49	192	6
BRK	50	0	1
TAP	50	96	1
TAP	50	192	0
TAP	50	288	0
TAP	51	0	7
TAP	51	96	7
TAP	51	192	0
TAP	51	192	6
TAP	52	0	6
TAP	52	96	6
TAP	52	192	7
TAP	52	288	7
TAP	53	0	0
TAP	53	96	0
TAP	53	192	1
TAP	53	192	7
TAP	54	0	2
TAP	54	96	2
TAP	54	192	3
TAP	54	288	3
TAP	55	0	4
TAP	55	96	4
TAP	55	192	3
TAP	55	192	5
TAP	56	0	5
TAP	56	96	5
TAP	56	192	4
TAP	56	288	4
XTP	57	0	3
XTP	57	0	4
XTP	57	96	3
XTP	57	96	4
XTP	57	192	2
XTP	57	192	5
TAP	58	0	1
TAP	58	96	1
XTP	58	192	0
XTP	58	192	1
XTP	58	288	0
XTP	58	288	1
TAP	59	0	1
TAP	59	96	0
TAP	59	192	1
TAP	59	192	7
TAP	60	0	6
TAP	60	96	6
XTP	60	192	6
XTP	60	192	7
XTP	60	288	6
XTP	60	288	7
TAP	61	0	6
TAP	61	96	7
TAP	61	192	0
TAP	61	192	6
TAP	62	0	5
TAP	62	96	5
XTP	62	192	4
XTP	62	192	5
XTP	62	288	4
XTP	62	288	5
TAP	63	0	5
TAP	63	96	4
TAP	63	192	3
TAP	63	288	2
TAP	64	0	1
TAP	64	96	1
TAP	64	192	0
TAP	64	288	0
XTP	65	0	0
XTP	65	0	7
XTP	65	96	0
XTP	65	96	7
XTP	65	192	1
XTP	65	192	6
XST	66	0	2
SCL	66	0	2	96	1056	3
XST	70	0	4
SCR	70	0	4	96	1056	3
TTP	74	0	3	B	0	L1
TTP	75	0	2	B	0	L1
TTP	76	0	1	B	0	L1
TTP	77	0	0	B	0	L1
TTP	78	0	7	B	0	L1
TTP	79	0	6	B	0	L1
TTP	80	0	5	B	0	L1
TTP	81	0	0	C	0	L1
TAP	82	0	0
TAP	82	192	0
TAP	83	0	1
TAP	83	192	1
TAP	84	0	2
TAP	84	192	2
TAP	85	0	3
TAP	85	192	3
TAP	86	0	4
TAP	86	192	4
TAP	87	0	5
TAP	87	192	5
TAP	88	0	6
TAP	88	192	6
TAP	89	0	7
TAP	89	96	7
TAP	89	192	0
TAP	89	192	6
BRK	90	0	6
TAP	90	96	6
TAP	90	192	7
TAP	90	288	7
TAP	91	0	0
TAP	91	96	0
TAP	91	192	1
TAP	91	192	7
TAP	92	0	2
TAP	92	96	2
TAP	92	192	3
TAP	92	288	3
TAP	93	0	4
TAP	93	96	4
TAP	93	192	3
TAP	93	192	5
TAP	94	0	6
TAP	94	96	6
TAP	94	192	5
TAP	94	192	7
TAP	95	0	1
TAP	95	96	1
TAP	95	192	0
TAP	95	192	2
TAP	96	0	1
TAP	96	96	1
TAP	96	192	2
TAP	96	288	2
XTP	97	0	3
XTP	97	0	4
XTP	97	96	3
XTP	97	96	4
XTP	97	192	2
XTP	97	192	5
TAP	98	0	1
XTP	98	96	0
XTP	98	96	1
TAP	98	192	1
XTP	98	288	0
XTP	98	288	1
TAP	99	0	1
TAP	99	96	0
XTP	99	192	1
XTP	99	192	7
TAP	100	0	6
XTP	100	96	6
XTP	100	96	7
TAP	100	192	6
XTP	100	288	6
XTP	100	288	7
TAP	101	0	6
TAP	101	96	7
XTP	101	192	0
XTP	101	192	6
HLD	102	0	1	192
HLD	102	192	0	192
HLD	103	0	7	192
XTP	103	192	6
HLD	104	0	5	192
HLD	104	192	4	192
HLD	105	0	3	192
BRK	105	192	2
TAP	106	0	1
TAP	106	192	0
TAP	106	192	1
TAP	107	0	6
TAP	107	192	6
TAP	107	192	7
TAP	108	0	1
TAP	108	192	0
TAP	108	192	1
TAP	109	0	7
TAP	109	96	7
TAP	109	192	0
TAP	109	192	6
TAP	110	0	5
TAP	110	192	4
TAP	110	192	5
TAP	111	0	2
TAP	111	192	2
TAP	111	192	3
TAP	112	0	5
TAP	112	192	4
TAP	112	192	5
TAP	113	0	3
TAP	113	96	3
TAP	113	192	2
TAP	113	192	4
TAP	114	0	1
TAP	114	96	1
TAP	114	192	0
TAP	115	0	6
TAP	115	96	6
TAP	115	192	7
TAP	116	0	1
TAP	116	96	1
TAP	116	192	0
TAP	117	0	7
TAP	117	96	7
TAP	117	192	0
TAP	117	192	6
TAP	118	0	5
TAP	118	96	5
TAP	118	192	4
TAP	119	0	2
TAP	119	96	2
TAP	119	192	3
TAP	120	0	5
TAP	120	96	5
TAP	120	192	4
XTP	121	0	3
XTP	121	0	4
XTP	121	96	3
XTP	121	96	4
XTP	121	192	2
XTP	121	192	5
XST	122	0	1
SCR	122	0	1	96	480	5
XST	124	0	6
SCL	124	0	6	96	480	2
XST	126	0	1
SCR	126	0	1	96	480	5
XST	128	0	6
SCL	128	0	6	96	480	2

T_REC_TAP	208
T_REC_BRK	3
T_REC_XTP	57
T_REC_HLD	18
T_REC_XHO	2
T_REC_STR	0
T_REC_BST	0
T_REC_XST	8
T_REC_TTP	8
T_REC_THO	0
T_REC_SLD	8
T_REC_ALL	312
T_NUM_TAP	281
T_NUM_BRK	3
T_NUM_HLD	20
T_NUM_SLD	8
T_NUM_ALL	312
T_JUDGE_TAP	284
T_JUDGE_HLD	116
T_JUDGE_SLD	8
T_JUDGE_ALL	408
TTM_EACHPAIRS	59
TTM_SCR_TAP	140500
TTM_SCR_BRK	7800
TTM_SCR_HLD	20000
TTM_SCR_SLD	12000
TTM_SCR_ALL	180300
TTM_SCR_S	174600
TTM_SCR_SS	180000
TTM_RAT_ACV	10016

