VERSION	0.00.00	1.03.00
FES_MODE	0
BPM_DEF	200.000	200.000	200.000	200.000
MET_DEF	4	4
RESOLUTION	384
CLK_DEF	384
COMPATIBLE_CODE	MA2

BPM	0	0	200.000
MET	0	0	4	4

TAP	10	0	1
TAP	12	0	0
TAP	14	0	7
TAP	16	0	6
TAP	18	0	7
TAP	18	192	7
TAP	20	0	6
TAP	20	192	6
TAP	22	0	5
TAP	22	192	5
HLD	24	0	4	384
TAP	26	0	3
TAP	26	192	3
TAP	28	0	2
TAP	28	192	2
TAP	30	0	1
TAP	30	192	1
HLD	32	0	0	384
STR	34	0	1
SI_	34	0	1	96	288	5
STR	36	0	6
SI_	36	0	6	96	288	2
STR	38	0	0
SI_	38	0	0	96	288	4
TAP	40	0	5
TAP	41	0	3
TAP	41	0	4
TTP	42	0	4	E	0	L1
TTP	43	0	4	B	0	L1
TTP	44	0	3	B	0	L1
TTP	45	0	5	B	0	L1
TTP	46	0	2	B	0	L1
TTP	47	0	1	B	0	L1
TTP	47	0	6	B	0	L1
THO	48	0	0	384	C	1	L1
TAP	50	0	7
TAP	50	192	7
TAP	51	0	7
TAP	52	0	6
TAP	52	192	6
TAP	53	0	6
TAP	54	0	5
TAP	54	192	5
TAP	55	0	5
TAP	56	0	4
TAP	56	192	4
XTP	57	0	4
TAP	58	0	3
TAP	58	192	3
TAP	59	0	3
TAP	60	0	2
TAP	60	192	2
TAP	61	0	2
TAP	62	0	1
TAP	62	192	1
TAP	63	0	1
TAP	64	0	0
TAP	64	192	0
BRK	65	0	0
HLD	66	0	7	768
HLD	70	0	0	768
TAP	74	0	0
TAP	75	0	0
TAP	76	0	1
TAP	77	0	1
TAP	78	0	2
TAP	79	0	2
HLD	80	0	3	384
TAP	82	0	4
TAP	83	0	4
TAP	84	0	5
TAP	85	0	5
TAP	86	0	6
TAP	87	0	6
TAP	88	0	7
BRK	89	0	7
TAP	90	0	7
TAP	90	96	7
TAP	90	192	7
TAP	91	0	6
TAP	92	0	5
TAP	92	96	5
TAP	92	192	5
TAP	93	0	3
TAP	93	0	4
TAP	94	0	3
TAP	94	96	3
TAP	94	192	3
TAP	95	0	2
TAP	96	0	1
TAP	96	96	1
TAP	96	192	1
XTP	97	0	0
XTP	97	0	7
TAP	98	0	0
TAP	98	192	0
TAP	99	0	1
TAP	99	192	1
TAP	100	0	2
TAP	100	192	2
TAP	101	0	3
TAP	101	0	4
TAP	102	0	4
TAP	102	192	4
TAP	103	0	5
TAP	103	192	5
TAP	104	0	6
TAP	104	192	6
TAP	105	0	7
TAP	105	192	7
BRK	106	0	0
TAP	107	0	7
TAP	107	192	7
TAP	108	0	6
TAP	108	192	6
TAP	109	0	4
TAP	109	0	5
TAP	110	0	3
TAP	110	192	3
TAP	111	0	2
TAP	111	192	2
TAP	112	0	1
TAP	112	192	1
TAP	113	0	0
TAP	113	0	1
TAP	114	0	0
TAP	114	192	0
TAP	115	0	1
TAP	115	192	1
TAP	116	0	2
TAP	116	192	2
TAP	117	0	2
TAP	117	0	3
TAP	118	0	4
TAP	118	192	4
TAP	119	0	5
TAP	119	192	5
TAP	120	0	6
TAP	120	192	6
TAP	121	0	6
TAP	121	0	7
STR	122	0	0
SI_	122	0	0	96	288	4
TAP	125	0	5
STR	126	0	6
SI_	126	0	6	96	288	2
TAP	128	0	1
TAP	129	0	0
TAP	129	192	0

T_REC_TAP	120
T_REC_BRK	3
T_REC_XTP	3
T_REC_HLD	5
T_REC_XHO	0
T_REC_STR	5
T_REC_BST	0
T_REC_XST	0
T_REC_TTP	7
T_REC_THO	1
T_REC_SLD	5
T_REC_ALL	149
T_NUM_TAP	135
T_NUM_BRK	3
T_NUM_HLD	6
T_NUM_SLD	5
T_NUM_ALL	149
T_JUDGE_TAP	138
T_JUDGE_HLD	64
T_JUDGE_SLD	5
T_JUDGE_ALL	207
TTM_EACHPAIRS	8
TTM_SCR_TAP	67500
TTM_SCR_BRK	7800
TTM_SCR_HLD	6000
TTM_SCR_SLD	7500
TTM_SCR_ALL	88800
TTM_SCR_S	85850
TTM_SCR_SS	88500
TTM_RAT_ACV	10033

