VERSION	0.00.00	1.03.00
FES_MODE	0
BPM_DEF	156.000	156.000	156.000	156.000
MET_DEF	4	4
RESOLUTION	384
CLK_DEF	384
COMPATIBLE_CODE	MA2

BPM	0	0	156.000
MET	0	0	4	4

STR	4	288	3
SI_	4	288	3	96	240	0
HLD	5	0	4	2688
STR	5	288	3
SI_	5	288	3	96	240	0
STR	6	288	3
SI_	6	288	3	96	240	0
STR	7	288	3
SI_	7	288	3	96	240	0
STR	8	288	3
SI_	8	288	3	96	240	0
STR	9	288	3
SI_	9	288	3	96	240	0
STR	10	288	3
SI_	10	288	3	96	240	0
BRK	12	0	0
TAP	13	0	2
TAP	13	0	6
TTP	13	96	1	B	0	M1
TTP	13	96	1	E	0	M1
TTP	13	144	5	B	0	M1
TTP	13	144	6	B	0	M1
TTP	13	192	2	B	0	M1
TTP	13	192	3	E	0	M1
TAP	13	288	1
TAP	13	288	4
TAP	14	0	3
TAP	14	0	4
TAP	14	48	2
TAP	14	48	5
TAP	14	96	1
TAP	14	96	6
TAP	14	144	0
TAP	14	144	7
XTP	14	192	0
XTP	14	204	1
XTP	14	216	2
XTP	14	228	3
XTP	14	240	4
XTP	14	252	5
XTP	14	264	6
XTP	14	276	7
XTP	14	288	0
TAP	15	0	3
STR	15	0	5
SI_	15	0	5	96	48	0
TAP	15	72	4
TAP	15	96	5
TAP	15	144	4
TAP	15	192	3
STR	15	192	5
SI_	15	192	5	96	48	0
TAP	15	264	4
TAP	15	288	5
TAP	15	336	4
TAP	16	0	3
STR	16	0	5
SI_	16	0	5	96	48	0
TAP	16	72	4
TAP	16	96	5
TAP	16	144	4
TAP	16	192	3
TAP	16	192	5
TAP	16	240	2
TAP	16	240	6
TAP	16	288	1
TAP	16	288	7
STR	17	0	2
SI_	17	0	2	96	48	7
TAP	17	0	4
TAP	17	72	3
TAP	17	96	2
TAP	17	144	3
STR	17	192	2
SI_	17	192	2	96	48	7
TAP	17	192	4
TAP	17	264	3
TAP	17	288	2
TAP	17	336	3
STR	18	0	2
SI_	18	0	2	96	48	7
TAP	18	0	4
TAP	18	72	3
TAP	18	96	2
TAP	18	144	3
TAP	18	192	2
TAP	18	192	4
TAP	18	240	1
TAP	18	240	5
TAP	18	288	0
TAP	18	288	6
TAP	19	0	3
STR	19	0	5
SI_	19	0	5	96	48	0
TAP	19	72	4
TAP	19	96	5
TAP	19	144	4
TAP	19	192	3
STR	19	192	5
SI_	19	192	5	96	48	0
TAP	19	264	4
TAP	19	288	5
TAP	19	336	4
TAP	20	0	3
STR	20	0	5
SI_	20	0	5	96	48	0
TAP	20	72	4
TAP	20	96	5
TAP	20	144	4
TAP	20	192	3
TAP	20	192	5
TAP	20	240	2
STR	20	288	2
SCL	20	288	2	96	48	7
TAP	21	0	5
STR	21	96	4
SCR	21	96	4	96	48	7
TAP	21	192	2
STR	21	288	0
SCL	21	288	0	96	192	2
STR	21	288	2
SV_	21	288	2	96	192	0
STR	22	288	4
SCR	22	288	4	96	96	7
TAP	23	0	0
TAP	23	96	0
TAP	23	192	0
TAP	23	192	7
TAP	23	288	0
STR	23	288	7
SI_	23	288	7	96	96	3
TAP	24	0	0
TAP	24	96	0
TAP	24	192	0
TAP	24	192	3
TAP	24	288	0
STR	24	288	3
SSL	24	288	3	96	192	7
TAP	25	0	0
TAP	25	96	0
TAP	25	192	0
TAP	25	288	0
TAP	25	288	7
TAP	26	0	0
TAP	26	0	7
TAP	26	96	0
TAP	26	96	6
TAP	26	192	0
TAP	26	192	5
STR	26	288	0
SLR	26	288	0	96	192	4
TAP	26	288	5
TAP	27	0	7
TAP	27	96	7
TAP	27	192	7
TAP	27	288	4
TAP	27	288	7
TAP	28	0	4
TAP	28	0	7
TAP	28	96	3
TAP	28	96	7
TAP	28	192	3
TAP	28	192	7
STR	28	288	4
SCL	28	288	4	96	96	0
TAP	28	288	7
TAP	29	0	7
TAP	29	96	7
TAP	29	192	0
TAP	29	192	7
STR	29	288	0
SCR	29	288	0	96	96	4
TAP	29	288	7
TAP	30	0	7
TAP	30	96	7
TAP	30	192	7
TAP	30	288	3
TAP	30	288	6
HLD	31	0	5	48
HLD	31	48	3	48
HLD	31	96	4	48
HLD	31	144	2	48
STR	31	192	5
SSR	31	192	5	96	192	1
TAP	31	288	1
TAP	32	0	0
STR	32	96	0
SCR	32	96	0	96	96	4
HLD	32	192	7	192
TTP	33	0	6	E	0	M1
TTP	33	96	0	C	0	M1
TTP	33	192	2	E	0	M1
STR	33	288	3
SI_	33	288	3	96	48	7
STR	34	0	3
SCL	34	0	3	96	48	0
SCR	34	0	3	96	48	6
STR	34	96	3
SF_	34	96	3	96	48	7
TAP	34	192	3
STR	35	0	6
SCL	35	0	6	96	48	3
STR	35	0	7
SCR	35	0	7	96	48	2
STR	35	192	0
SCL	35	192	0	96	48	5
STR	35	192	1
SCR	35	192	1	96	48	4
STR	36	0	3
SCL	36	0	3	96	48	0
STR	36	0	4
SCR	36	0	4	96	48	7
TAP	36	192	1
TAP	36	192	6
STR	36	288	3
SCL	36	288	3	96	48	0
TAP	37	0	4
STR	37	96	3
SCR	37	96	3	96	48	6
TAP	37	192	1
TAP	37	288	0
TAP	37	288	6
BST	38	0	0
SV_	38	0	0	96	96	3
BST	38	0	6
SV_	38	0	6	96	96	3
TAP	38	288	3
TAP	38	288	4
STR	39	0	5
SXL	39	0	5	96	144	4
TAP	39	144	3
STR	39	192	3
SI_	39	192	3	96	48	0
SI_	39	192	3	96	48	7
BRK	39	288	3
STR	40	0	5
SXL	40	0	5	96	144	4
TAP	40	144	3
STR	40	192	3
SI_	40	192	3	96	48	0
SI_	40	192	3	96	48	7
BRK	40	288	3
STR	41	0	5
SXL	41	0	5	96	144	4
TAP	41	144	3
STR	41	192	3
SI_	41	192	3	96	48	0
SI_	41	192	3	96	48	7
BRK	41	288	3
TAP	42	0	1
TAP	42	0	6
TAP	42	96	2
TAP	42	96	5
TAP	42	192	0
TAP	42	192	7
TAP	42	288	3
TAP	42	288	4
STR	43	0	2
SXR	43	0	2	96	144	3
TAP	43	144	4
STR	43	192	4
SI_	43	192	4	96	48	0
SI_	43	192	4	96	48	7
BRK	43	288	4
STR	44	0	2
SXR	44	0	2	96	144	3
TAP	44	144	4
STR	44	192	4
SI_	44	192	4	96	48	0
SI_	44	192	4	96	48	7
BRK	44	288	4
STR	45	0	2
SXR	45	0	2	96	144	3
TAP	45	144	4
STR	45	192	4
SI_	45	192	4	96	48	0
SI_	45	192	4	96	48	7
STR	45	288	4
SCR	45	288	4	96	96	3
TTP	46	0	0	C	1	M1
BST	46	192	4
SI_	46	192	4	96	48	0
HLD	46	192	6	96
BRK	46	288	4
BRK	47	0	1
BRK	47	0	5
TAP	47	72	0
STR	47	96	7
SI_	47	96	7	96	48	3
TAP	47	144	3
TAP	47	192	7
TAP	47	288	0
STR	47	336	0
SCR	47	336	0	96	48	4
STR	48	0	4
SCR	48	0	4	96	48	0
XTP	48	96	0
TAP	48	192	4
TAP	48	288	2
TAP	48	288	6
TAP	48	336	1
STR	49	0	0
SI_	49	0	0	96	24	2
STR	49	0	7
SI_	49	0	7	96	24	3
XTP	49	96	0
XTP	49	96	7
TTP	49	108	0	C	1	M1
STR	49	192	0
SI_	49	192	0	96	24	4
STR	49	192	7
SI_	49	192	7	96	24	5
XTP	49	288	0
XTP	49	288	7
TTP	49	300	0	C	1	M1
STR	50	0	0
SI_	50	0	0	96	24	2
STR	50	0	7
SI_	50	0	7	96	24	3
STR	50	96	0
SI_	50	96	0	96	24	4
STR	50	96	7
SI_	50	96	7	96	24	5
TTP	50	108	0	C	1	M1
XTP	50	192	0
XTP	50	192	7
TTP	50	204	0	C	1	M1
TAP	50	288	0
TAP	50	288	6
TAP	50	336	7
STR	51	0	0
SCR	51	0	0	96	48	3
STR	51	0	1
SCL	51	0	1	96	48	6
STR	51	192	6
SCR	51	192	6	96	48	1
STR	51	192	7
SCL	51	192	7	96	48	4
STR	52	0	0
SCL	52	0	0	96	48	5
STR	52	0	7
SCR	52	0	7	96	48	2
TAP	52	192	1
TAP	52	192	6
STR	52	288	3
SI_	52	288	3	96	48	0
XTP	53	0	3
STR	53	0	4
SI_	53	0	4	96	48	7
STR	53	96	3
SI_	53	96	3	96	48	0
XTP	53	96	4
XTP	53	192	3
STR	53	192	4
SI_	53	192	4	96	48	7
STR	53	288	3
SCL	53	288	3	96	96	4
XTP	53	288	4
TTP	54	0	0	C	1	M1
BRK	54	0	3
BST	54	192	4
SI_	54	192	4	96	48	0
HLD	54	192	6	96
BRK	54	288	4
BRK	55	0	1
BRK	55	0	5
TAP	55	72	4
STR	55	96	3
SI_	55	96	3	96	48	7
TAP	55	144	7
TAP	55	192	3
TAP	55	288	4
STR	55	336	4
SCR	55	336	4	96	48	0
STR	56	0	0
SCR	56	0	0	96	48	4
XTP	56	96	4
TAP	56	192	0
TAP	56	288	2
TAP	56	288	6
TAP	56	336	5
STR	57	0	3
SI_	57	0	3	96	48	1
STR	57	0	4
SI_	57	0	4	96	48	0
XTP	57	96	3
XTP	57	96	4
STR	57	192	3
SI_	57	192	3	96	48	7
STR	57	192	4
SI_	57	192	4	96	48	6
XTP	57	288	3
XTP	57	288	4
STR	58	0	3
SI_	58	0	3	96	48	1
STR	58	0	4
SI_	58	0	4	96	48	0
STR	58	96	3
SI_	58	96	3	96	48	7
STR	58	96	4
SI_	58	96	4	96	48	6
XTP	58	192	3
XTP	58	192	4
TAP	58	288	1
TAP	58	288	7
TAP	58	336	2
TAP	59	0	3
TAP	59	0	5
TAP	59	48	6
TAP	59	96	0
TAP	59	96	7
TAP	59	144	1
HLD	59	192	2	96
TAP	59	192	4
TAP	59	288	7
TAP	59	336	7
TAP	60	0	3
TAP	60	0	6
TAP	60	48	2
TAP	60	96	1
TAP	60	96	4
TAP	60	144	5
TAP	60	192	2
TAP	60	192	6
TAP	60	288	0
TAP	60	288	7
TAP	60	336	0
TAP	60	336	7
HLD	61	0	1	96
HLD	61	0	6	96
TAP	61	144	3
TAP	61	144	4
HLD	61	192	2	96
HLD	61	192	5	96
BST	62	0	0
SI_	62	0	0	96	48	3
BST	62	0	6
SI_	62	0	6	96	48	3
BRK	62	96	0
BRK	62	96	6
BRK	62	192	1
STR	62	192	7
SUL	62	192	7	96	48	2
TAP	62	288	0
BRK	62	288	7
XST	63	0	2
SI_	63	0	2	96	48	7
XTP	63	0	4
TAP	63	72	3
TAP	63	96	2
TAP	63	144	3
STR	63	192	2
SI_	63	192	2	96	48	7
TAP	63	192	4
TAP	63	264	3
TAP	63	288	2
TAP	63	336	3
STR	64	0	2
SI_	64	0	2	96	48	7
TAP	64	0	4
TAP	64	72	3
TAP	64	96	2
TAP	64	144	3
TAP	64	192	2
TAP	64	192	4
TAP	64	240	1
TAP	64	240	5
TAP	64	288	0
TAP	64	288	6
TAP	65	0	3
STR	65	0	5
SI_	65	0	5	96	48	0
TAP	65	72	4
TAP	65	96	5
TAP	65	144	4
TAP	65	192	3
STR	65	192	5
SI_	65	192	5	96	48	0
TAP	65	264	4
TAP	65	288	5
TAP	65	336	4
TAP	66	0	3
STR	66	0	5
SI_	66	0	5	96	48	0
TAP	66	72	4
TAP	66	96	5
TAP	66	144	4
TAP	66	192	3
TAP	66	192	5
TAP	66	240	2
TAP	66	240	6
TAP	66	288	1
TAP	66	288	7
STR	67	0	2
SI_	67	0	2	96	48	7
TAP	67	0	4
TAP	67	72	3
TAP	67	96	2
TAP	67	144	3
STR	67	192	2
SI_	67	192	2	96	48	7
TAP	67	192	4
TAP	67	264	3
TAP	67	288	2
TAP	67	336	3
STR	68	0	2
SI_	68	0	2	96	48	7
TAP	68	0	4
TAP	68	72	3
TAP	68	96	2
TAP	68	144	4
TAP	68	192	3
TAP	68	192	5
TAP	68	288	2
TAP	68	288	6
STR	69	0	1
SUR	69	0	1	96	96	5
TAP	69	0	5
TAP	69	96	4
STR	69	192	7
SUL	69	192	7	96	96	3
TAP	69	288	3
HLD	70	0	2	288
HLD	70	192	4	2592
XTP	71	0	1
XTP	71	12	0
XTP	71	24	7
XTP	71	36	6
XTP	71	48	5
XTP	71	96	6
XTP	71	108	7
XTP	71	120	0
XTP	71	132	1
XTP	71	144	2
XTP	71	192	1
XTP	71	204	0
XTP	71	216	7
XTP	71	228	6
XTP	71	240	5
XTP	71	288	6
XTP	71	300	7
XTP	71	312	0
XTP	71	324	1
XTP	71	336	2
XTP	72	0	1
XTP	72	12	0
XTP	72	24	7
XTP	72	36	6
XTP	72	48	5
XTP	72	96	6
XTP	72	108	7
XTP	72	120	0
XTP	72	132	1
XTP	72	144	2
XTP	72	192	1
XTP	72	204	0
XTP	72	216	7
XTP	72	228	6
XTP	72	240	5
XTP	72	288	6
XTP	72	300	7
XTP	72	312	0
XTP	72	324	1
XTP	72	336	2
XTP	73	0	1
XTP	73	12	0
XTP	73	24	7
XTP	73	36	6
XTP	73	48	5
XTP	73	96	6
XTP	73	108	7
XTP	73	120	0
XTP	73	132	1
XTP	73	144	2
XTP	73	192	1
XTP	73	204	0
XTP	73	216	7
XTP	73	228	6
XTP	73	240	5
XTP	73	288	6
XTP	73	300	7
XTP	73	312	0
XTP	73	324	1
XTP	73	336	2
XTP	74	0	1
XTP	74	12	0
XTP	74	24	7
XTP	74	36	6
XTP	74	48	5
XTP	74	96	6
XTP	74	108	7
XTP	74	120	0
XTP	74	132	1
XTP	74	144	2
XTP	74	192	1
XTP	74	204	0
XTP	74	216	7
XTP	74	228	6
XTP	74	240	5
XTP	74	288	6
XTP	74	300	7
XTP	74	312	0
XTP	74	324	1
XTP	74	336	2
XTP	75	0	1
XTP	75	12	0
XTP	75	24	7
XTP	75	36	6
XTP	75	48	5
XTP	75	96	6
XTP	75	108	7
XTP	75	120	0
XTP	75	132	1
XTP	75	144	2
XTP	75	192	1
XTP	75	204	0
XTP	75	216	7
XTP	75	228	6
XTP	75	240	5
XTP	75	288	6
XTP	75	300	7
XTP	75	312	0
XTP	75	324	1
XTP	75	336	2
XTP	76	0	1
XTP	76	12	0
XTP	76	24	7
XTP	76	36	6
XTP	76	48	5
XTP	76	96	6
XTP	76	108	7
XTP	76	120	0
XTP	76	132	1
XTP	76	144	2
XTP	76	192	1
XTP	76	204	0
XTP	76	216	7
XTP	76	228	6
XTP	76	240	5
XTP	76	288	6
XTP	76	300	7
XTP	76	312	0
XTP	76	324	1
XTP	76	336	2
XTP	77	0	1
XTP	77	12	0
XTP	77	24	7
XTP	77	36	6
XTP	77	48	5
XTP	77	96	6
XTP	77	108	7
XTP	77	120	0
XTP	77	132	1
XTP	77	144	2
XTP	77	192	0
STR	77	288	3
SI_	77	288	3	96	48	0
STR	77	288	4
SI_	77	288	4	96	48	7
STR	78	96	3
SI_	78	96	3	96	48	0
STR	78	96	4
SI_	78	96	4	96	48	7
STR	78	288	3
SCL	78	288	3	96	768	0
STR	78	288	4
SCR	78	288	4	96	768	7

T_REC_TAP	236
T_REC_BRK	17
T_REC_XTP	159
T_REC_HLD	15
T_REC_XHO	0
T_REC_STR	102
T_REC_BST	6
T_REC_XST	1
T_REC_TTP	15
T_REC_THO	0
T_REC_SLD	116
T_REC_ALL	667
T_NUM_TAP	513
T_NUM_BRK	23
T_NUM_HLD	15
T_NUM_SLD	116
T_NUM_ALL	667
T_JUDGE_TAP	536
T_JUDGE_HLD	138
T_JUDGE_SLD	116
T_JUDGE_ALL	790
TTM_EACHPAIRS	117
TTM_SCR_TAP	256500
TTM_SCR_BRK	59800
TTM_SCR_HLD	15000
TTM_SCR_SLD	174000
TTM_SCR_ALL	505300
TTM_SCR_S	487950
TTM_SCR_SS	503000
TTM_RAT_ACV	10045

