VERSION	0.00.00	1.03.00
FES_MODE	0
BPM_DEF	156.000	156.000	156.000	156.000
MET_DEF	4	4
RESOLUTION	384
CLK_DEF	384
COMPATIBLE_CODE	MA2

BPM	0	0	156.000
MET	0	0	4	4

TAP	1	0	7
TAP	1	48	0
TAP	1	96	1
HLD	1	144	2	96
TAP	1	240	0
TAP	1	288	7
HLD	1	336	6	96
TAP	2	48	0
TAP	2	96	1
TAP	2	144	2
TAP	2	192	6
TAP	2	240	5
TAP	2	288	4
TAP	3	0	0
TAP	3	48	7
TAP	3	96	6
HLD	3	144	5	96
TAP	3	240	7
TAP	3	288	0
HLD	3	336	1	96
TAP	4	48	7
TAP	4	96	6
TAP	4	144	5
TAP	4	192	1
TAP	4	192	4
TAP	4	288	3
TAP	4	288	6
HLD	5	0	1	96
BRK	5	0	3
TAP	5	96	4
TAP	5	144	5
TAP	5	192	4
HLD	5	192	6	96
TAP	5	288	3
TAP	5	336	2
HLD	6	0	1	48
TAP	6	0	3
TAP	6	48	5
TAP	6	96	4
HLD	6	96	6	48
TAP	6	144	2
HLD	6	192	1	96
HLD	6	192	3	96
TAP	6	336	5
TAP	7	0	4
HLD	7	0	6	96
TAP	7	96	3
TAP	7	144	2
HLD	7	192	1	96
TAP	7	192	3
TAP	7	288	3
TAP	7	336	5
TAP	8	0	4
HLD	8	0	6	48
TAP	8	48	2
HLD	8	96	1	48
TAP	8	96	3
TAP	8	144	5
HLD	8	192	4	96
HLD	8	192	6	96
TAP	8	336	0
TAP	9	0	0
TAP	9	48	1
TAP	9	96	1
TAP	9	144	2
STR	9	192	2
SUL	9	192	2	96	48	5
TAP	9	336	7
TAP	10	0	7
TAP	10	48	6
TAP	10	96	6
TAP	10	144	5
STR	10	192	5
SUR	10	192	5	96	48	2
STR	11	0	3
SCL	11	0	3	96	48	0
STR	11	0	7
SCL	11	0	7	96	48	4
STR	11	192	0
SCR	11	192	0	96	48	3
STR	11	192	4
SCR	11	192	4	96	48	7
TAP	12	0	0
TAP	12	0	2
TAP	12	96	5
TAP	12	96	7
STR	12	192	0
SCL	12	192	0	96	72	2
STR	12	192	2
SV_	12	192	2	96	48	0
TTP	12	288	0	C	1	M1
TAP	14	0	0
TAP	14	0	7
TAP	14	48	0
TAP	14	48	7
STR	14	96	0
SXL	14	96	0	96	96	3
STR	14	96	7
SXR	14	96	7	96	96	4
TAP	14	144	0
TAP	14	144	7
XTP	14	192	0
XTP	14	192	7
BRK	15	0	1
BRK	15	0	6
TAP	15	72	2
TAP	15	96	7
TAP	15	144	3
TAP	15	192	1
TAP	15	192	6
TAP	15	264	5
TAP	15	288	0
TAP	15	336	4
TAP	16	0	1
TAP	16	0	6
TAP	16	72	2
TAP	16	96	7
TAP	16	144	3
TTP	16	192	0	E	0	M1
TTP	16	192	1	E	0	M1
TTP	16	240	0	C	0	M1
TTP	16	288	4	E	0	M1
TTP	16	288	5	E	0	M1
TAP	17	0	1
TAP	17	0	6
TAP	17	72	5
TAP	17	96	0
TAP	17	144	4
TAP	17	192	1
TAP	17	192	6
TAP	17	264	2
TAP	17	288	7
TAP	17	336	3
TAP	18	0	1
TAP	18	0	6
TAP	18	72	5
TAP	18	96	0
TAP	18	144	4
TTP	18	192	0	E	0	M1
TTP	18	192	7	E	0	M1
TTP	18	240	0	C	0	M1
TTP	18	288	3	E	0	M1
TTP	18	288	4	E	0	M1
TAP	19	0	3
TAP	19	0	5
TAP	19	96	0
TAP	19	96	1
TAP	19	192	2
TAP	19	192	7
TAP	19	288	0
TAP	19	336	1
STR	20	0	6
SI_	20	0	6	96	48	3
STR	20	48	7
SI_	20	48	7	96	48	2
TAP	20	240	0
TAP	20	288	0
STR	21	0	0
SCL	21	0	0	96	48	5
STR	21	0	1
SCR	21	0	1	96	48	4
STR	21	192	6
SCL	21	192	6	96	48	3
STR	21	192	7
SCR	21	192	7	96	48	2
THO	22	0	0	192	C	1	M1
TTP	22	192	1	B	0	M1
TTP	22	192	2	B	0	M1
TTP	22	192	5	B	0	M1
TTP	22	192	6	B	0	M1
TAP	23	0	0
TAP	23	0	7
TAP	23	48	6
TAP	23	96	0
TAP	23	96	7
TAP	23	144	1
TAP	23	192	0
TAP	23	192	6
TAP	23	288	1
TAP	23	288	7
TAP	23	336	2
TAP	24	0	0
TAP	24	0	6
TAP	24	48	5
TAP	24	96	1
TAP	24	96	7
TAP	24	192	0
TAP	24	192	6
TAP	24	288	1
TAP	24	288	7
TAP	24	336	2
TAP	25	0	0
TAP	25	0	1
TAP	25	48	7
TAP	25	96	6
TAP	25	96	7
TAP	25	144	0
TAP	25	192	0
TAP	25	192	1
TAP	25	288	6
TAP	25	288	7
TAP	25	336	6
TAP	26	0	0
TAP	26	0	7
TAP	26	48	0
TAP	26	96	1
TAP	26	96	7
TAP	26	144	7
TAP	26	192	0
TAP	26	192	1
TAP	26	288	6
TAP	26	336	2
HLD	27	0	6	96
TAP	27	48	4
HLD	27	96	4	96
TAP	27	144	3
HLD	27	192	3	96
TAP	27	288	1
TAP	27	336	5
HLD	28	0	1	96
TAP	28	48	3
HLD	28	96	3	96
TAP	28	144	4
HLD	28	192	4	96
TAP	28	288	6
STR	29	0	3
SCL	29	0	3	96	48	1
STR	29	0	6
SCL	29	0	6	96	48	4
STR	29	192	1
SCR	29	192	1	96	48	3
STR	29	192	4
SCR	29	192	4	96	48	6
STR	30	0	3
SCL	30	0	3	96	192	5
STR	30	0	5
SUL	30	0	5	96	192	3
TAP	31	0	1
TAP	31	0	3
TAP	31	48	5
TAP	31	96	4
TAP	31	96	6
TAP	31	144	2
HLD	31	192	1	96
TAP	31	192	3
TAP	31	288	6
TAP	31	336	7
TAP	32	0	0
TAP	32	0	6
TAP	32	48	5
TAP	32	96	1
TAP	32	96	7
TAP	32	144	2
STR	32	192	0
SSL	32	192	0	96	48	4
HLD	32	192	6	96
TTP	33	0	5	E	0	M1
TTP	33	96	0	C	0	M1
TTP	33	192	1	E	0	M1
TTP	33	288	3	E	0	M1
TTP	34	0	2	E	0	M1
TTP	34	0	4	E	0	M1
TTP	34	96	0	C	0	M1
TTP	34	96	1	E	0	M1
TTP	34	96	5	E	0	M1
TTP	34	192	0	E	0	M1
TTP	34	192	6	B	0	M1
TTP	34	192	6	E	0	M1
TTP	34	192	7	B	0	M1
TAP	35	0	1
TAP	35	0	7
TAP	35	48	0
TAP	35	96	1
TAP	35	96	7
TAP	35	144	2
TAP	35	144	6
TAP	35	192	3
TAP	35	192	5
TAP	35	288	7
TAP	35	336	3
TAP	36	0	0
TAP	36	0	6
TAP	36	48	7
TAP	36	96	0
TAP	36	96	6
TAP	36	144	1
TAP	36	144	5
TAP	36	192	2
TAP	36	192	4
TAP	36	288	3
TAP	36	288	5
STR	37	0	2
SCR	37	0	2	96	48	5
STR	37	0	7
SXR	37	0	7	96	48	5
STR	37	192	0
SXL	37	192	0	96	48	2
STR	37	192	5
SCL	37	192	5	96	48	2
STR	38	0	2
SXR	38	0	2	96	96	4
STR	38	0	6
SXL	38	0	6	96	96	4
TTP	38	288	0	C	0	M1
HLD	39	0	1	96
TAP	39	0	3
TTP	39	96	7	B	0	M1
TAP	39	192	4
HLD	39	192	6	96
TTP	39	288	0	B	0	M1
TAP	40	0	1
TAP	40	0	3
TAP	40	96	4
TAP	40	96	6
TAP	40	192	0
HLD	40	192	2	96
TTP	40	288	0	C	0	M1
TAP	41	0	4
HLD	41	0	6	96
TTP	41	96	0	B	0	M1
HLD	41	192	1	96
TAP	41	192	3
TTP	41	288	7	B	0	M1
TAP	42	0	5
TAP	42	0	7
TAP	42	96	0
TAP	42	96	2
TAP	42	192	4
HLD	42	192	6	96
TTP	42	288	0	C	0	M1
HLD	43	0	2	96
TAP	43	0	4
TTP	43	96	0	C	0	M1
TAP	43	192	3
HLD	43	192	5	96
TTP	43	288	0	C	0	M1
HLD	44	0	1	96
TAP	44	0	3
TTP	44	96	7	B	0	M1
TAP	44	192	4
HLD	44	192	6	96
TTP	44	288	0	B	0	M1
TAP	45	0	2
TAP	45	0	7
TAP	45	96	1
TAP	45	96	3
TAP	45	192	0
TAP	45	192	5
TAP	45	288	4
TAP	45	288	6
THO	46	0	0	96	C	1	M1
BRK	46	288	0
BRK	46	288	7
TAP	47	0	1
TAP	47	0	5
TAP	47	72	6
TAP	47	96	4
TAP	47	144	6
TAP	47	192	1
TAP	47	192	5
TAP	47	264	6
TAP	47	288	4
TAP	47	336	6
TAP	48	0	0
TAP	48	0	4
TAP	48	48	2
TAP	48	96	3
TAP	48	96	7
TAP	48	144	5
STR	48	192	0
SI_	48	192	0	96	48	4
TAP	49	0	2
TAP	49	0	6
TAP	49	72	1
TAP	49	96	3
TAP	49	144	1
TAP	49	192	2
TAP	49	192	6
TAP	49	264	1
TAP	49	288	3
TAP	49	336	1
TAP	50	0	3
TAP	50	0	7
TAP	50	48	5
TAP	50	96	0
TAP	50	96	4
TAP	50	144	2
STR	50	192	7
SI_	50	192	7	96	48	3
TAP	50	336	0
TAP	51	0	0
TAP	51	48	1
TAP	51	96	1
TAP	51	144	2
STR	51	192	2
SUL	51	192	2	96	48	5
TAP	51	336	7
TAP	52	0	7
TAP	52	48	6
TAP	52	96	6
TAP	52	144	5
STR	52	192	5
SUR	52	192	5	96	48	2
TAP	52	336	3
STR	53	0	3
SI_	53	0	3	96	48	6
TAP	53	144	4
STR	53	192	4
SI_	53	192	4	96	48	1
TAP	53	336	0
STR	54	0	0
SF_	54	0	0	96	48	4
TAP	54	192	2
TAP	54	192	5
BRK	54	288	0
BRK	54	288	7
TAP	55	0	2
TAP	55	0	6
TAP	55	72	1
TAP	55	96	3
TAP	55	144	1
TAP	55	192	2
TAP	55	192	6
TAP	55	264	1
TAP	55	288	3
TAP	55	336	1
TAP	56	0	3
TAP	56	0	7
TAP	56	48	5
TAP	56	96	0
TAP	56	96	4
TAP	56	144	2
STR	56	192	7
SI_	56	192	7	96	48	3
TAP	57	0	1
TAP	57	0	5
TAP	57	72	6
TAP	57	96	4
TAP	57	144	6
TAP	57	192	1
TAP	57	192	5
TAP	57	264	6
TAP	57	288	4
TAP	57	336	6
TAP	58	0	0
TAP	58	0	4
TAP	58	48	2
TAP	58	96	3
TAP	58	96	7
TAP	58	144	5
STR	58	192	0
SI_	58	192	0	96	48	4
TAP	58	336	7
TAP	59	0	7
TAP	59	48	6
TAP	59	96	6
STR	59	144	5
SUR	59	144	5	96	48	2
TAP	59	192	5
TAP	59	336	0
TAP	60	0	0
TAP	60	48	1
TAP	60	96	1
STR	60	144	2
SUL	60	144	2	96	48	5
TAP	60	192	2
TAP	60	288	6
TAP	60	336	6
STR	61	0	6
SI_	61	0	6	96	48	3
TAP	61	144	1
STR	61	192	1
SI_	61	192	1	96	48	4
TAP	62	0	0
TAP	62	0	2
TAP	62	96	5
TAP	62	96	7
STR	62	192	0
SCL	62	192	0	96	72	2
STR	62	192	2
SV_	62	192	2	96	48	0
TAP	63	0	1
TAP	63	72	5
TAP	63	96	0
TAP	63	144	7
TAP	63	192	3
TAP	63	192	6
TAP	63	264	2
TAP	63	288	7
TAP	63	336	0
TAP	64	0	1
TAP	64	0	4
TAP	64	72	5
TAP	64	96	0
TAP	64	144	7
TTP	64	192	7	E	0	M1
TTP	64	240	1	E	0	M1
TTP	64	288	5	E	0	M1
TTP	64	336	3	E	0	M1
TAP	65	0	3
TAP	65	0	6
TAP	65	72	2
TAP	65	96	7
TAP	65	144	0
TAP	65	192	1
TAP	65	192	4
TAP	65	264	5
TAP	65	288	0
TAP	65	336	7
TAP	66	0	3
TAP	66	0	6
TAP	66	72	2
TAP	66	96	7
TAP	66	144	0
TTP	66	192	1	E	0	M1
TTP	66	192	7	E	0	M1
TTP	66	240	0	C	0	M1
TTP	66	288	3	E	0	M1
TTP	66	288	5	E	0	M1
STR	67	0	3
SI_	67	0	3	96	48	0
STR	67	0	4
SI_	67	0	4	96	48	7
TAP	67	192	2
TAP	67	192	6
TAP	67	264	4
TAP	67	288	5
TAP	67	336	3
TAP	68	0	2
TAP	68	0	4
TAP	68	48	3
TAP	68	48	5
TAP	68	96	1
TAP	68	96	4
TAP	68	144	3
TAP	68	144	6
TAP	68	240	0
TAP	68	240	7
TAP	68	288	2
TAP	68	288	5
TAP	69	0	0
TAP	69	0	2
TAP	69	72	4
TAP	69	96	5
TAP	69	144	6
TAP	69	192	5
TAP	69	192	7
TAP	69	264	3
TAP	69	288	2
TAP	69	336	1
STR	70	0	0
SUR	70	0	0	96	48	5
STR	70	0	1
SCR	70	0	1	96	48	4
STR	70	192	6
SCL	70	192	6	96	48	3
STR	70	192	7
SUL	70	192	7	96	48	2
TAP	71	0	4
TAP	71	0	5
BRK	71	96	0
BRK	71	96	7
TAP	71	192	0
TAP	71	192	2
TAP	71	264	1
TAP	71	264	7
TAP	71	336	0
TAP	71	336	6
TAP	72	0	4
TAP	72	0	7
TAP	72	72	0
TAP	72	72	5
TAP	72	144	1
TAP	72	144	6
STR	72	192	2
SCL	72	192	2	96	48	7
STR	72	192	7
SCL	72	192	7	96	48	4
TAP	73	0	2
TAP	73	0	3
TAP	73	96	0
TAP	73	96	7
TAP	73	192	5
TAP	73	192	7
TAP	73	264	0
TAP	73	264	6
TAP	73	336	1
TAP	73	336	7
TAP	74	0	0
TAP	74	0	3
TAP	74	72	2
TAP	74	72	7
TAP	74	144	1
TAP	74	144	6
STR	74	192	0
SCR	74	192	0	96	48	3
STR	74	192	5
SCR	74	192	5	96	48	0
TAP	75	0	1
TAP	75	0	4
TAP	75	96	3
TAP	75	96	6
TAP	75	192	4
TAP	75	192	5
TAP	75	264	3
TAP	75	264	6
TAP	75	336	2
TAP	75	336	7
TAP	76	0	0
TAP	76	0	1
TAP	76	96	4
TAP	76	96	5
TAP	76	192	2
TAP	76	192	3
TAP	76	288	6
TAP	76	288	7
TAP	77	0	3
TAP	77	0	7
TAP	77	96	1
TAP	77	96	5
TAP	77	192	0
TAP	77	192	4
TAP	77	288	2
TAP	77	288	6
STR	78	0	1
SCR	78	0	1	96	48	5
STR	78	0	7
SXR	78	0	7	96	48	5
STR	78	192	0
SXL	78	192	0	96	48	2
STR	78	192	6
SCL	78	192	6	96	48	2
STR	79	0	0
SCL	79	0	0	96	1056	2
STR	79	0	2
SV_	79	0	2	96	672	0

T_REC_TAP	421
T_REC_BRK	9
T_REC_XTP	2
T_REC_HLD	34
T_REC_XHO	0
T_REC_STR	60
T_REC_BST	0
T_REC_XST	0
T_REC_TTP	48
T_REC_THO	2
T_REC_SLD	60
T_REC_ALL	636
T_NUM_TAP	531
T_NUM_BRK	9
T_NUM_HLD	36
T_NUM_SLD	60
T_NUM_ALL	636
T_JUDGE_TAP	540
T_JUDGE_HLD	70
T_JUDGE_SLD	60
T_JUDGE_ALL	670
TTM_EACHPAIRS	160
TTM_SCR_TAP	265500
TTM_SCR_BRK	23400
TTM_SCR_HLD	36000
TTM_SCR_SLD	90000
TTM_SCR_ALL	414900
TTM_SCR_S	401600
TTM_SCR_SS	414000
TTM_RAT_ACV	10021

