VERSION	0.00.00	1.03.00
FES_MODE	0
BPM_DEF	156.000	156.000	156.000	156.000
MET_DEF	4	4
RESOLUTION	384
CLK_DEF	384
COMPATIBLE_CODE	MA2

BPM	0	0	156.000
MET	0	0	4	4

STR	5	0	3
SI_	5	0	3	96	192	0
HLD	5	0	4	1152
STR	6	0	3
SI_	6	0	3	96	192	0
STR	7	0	3
SI_	7	0	3	96	192	0
STR	8	0	3
SI_	8	0	3	96	192	0
TAP	9	0	5
HLD	9	192	5	480
TAP	10	0	2
HLD	10	192	2	96
STR	11	0	3
SCL	11	0	3	96	192	0
STR	11	0	4
SCR	11	0	4	96	192	7
TAP	12	0	2
HLD	12	0	5	288
TAP	12	96	3
STR	12	192	4
SI_	12	192	4	96	48	0
TAP	13	288	2
TAP	13	288	5
TAP	14	0	3
TAP	14	48	3
TAP	14	96	4
STR	14	192	2
SI_	14	192	2	96	48	7
XTP	15	0	6
TAP	15	96	0
TAP	15	96	6
TAP	15	192	1
TAP	15	288	1
TAP	15	288	7
HLD	16	0	6	96
HLD	16	96	4	96
TAP	16	192	5
TAP	16	240	5
TAP	16	288	5
TAP	17	0	1
TAP	17	96	1
TAP	17	96	7
TAP	17	192	6
TAP	17	288	0
TAP	17	288	6
HLD	18	0	1	96
HLD	18	96	3	96
TAP	18	192	2
TAP	18	240	2
TAP	18	288	2
TAP	19	0	6
TAP	19	96	0
TAP	19	96	6
TAP	19	192	1
TAP	19	288	1
TAP	19	288	7
TAP	20	0	6
TAP	20	48	6
TAP	20	96	4
TAP	20	144	4
TAP	20	192	5
TAP	20	288	3
TAP	20	288	6
STR	21	0	3
SCL	21	0	3	96	48	1
STR	21	0	6
SCL	21	0	6	96	48	4
TAP	21	192	1
TAP	21	192	4
TAP	21	288	1
TAP	21	288	4
STR	22	0	0
SUL	22	0	0	96	96	3
HLD	22	0	6	192
TTP	23	0	6	E	0	M1
TTP	23	96	5	E	0	M1
TTP	23	192	4	E	0	M1
TTP	23	288	3	E	0	M1
TTP	24	0	2	E	0	M1
STR	24	96	0
SI_	24	96	0	96	96	4
TTP	25	0	6	E	0	M1
TTP	25	96	5	E	0	M1
TTP	25	192	4	E	0	M1
TTP	25	288	3	E	0	M1
TTP	26	0	2	E	0	M1
STR	26	96	0
SI_	26	96	0	96	96	4
TTP	27	0	6	E	0	M1
TTP	27	96	7	E	0	M1
TTP	27	192	0	E	0	M1
TTP	27	288	1	E	0	M1
TTP	28	0	2	E	0	M1
STR	28	96	3
SI_	28	96	3	96	96	7
TAP	29	0	5
TAP	29	96	4
TAP	29	96	5
TAP	29	192	2
TAP	29	288	2
TAP	29	288	3
STR	30	0	4
SSL	30	0	4	96	192	0
TTP	31	0	2	E	0	M1
TTP	31	96	3	E	0	M1
TTP	31	192	4	E	0	M1
TTP	31	288	5	E	0	M1
TTP	32	0	6	E	0	M1
STR	32	96	7
SUL	32	96	7	96	96	3
TTP	33	0	2	E	0	M1
TTP	33	96	3	E	0	M1
TTP	33	192	4	E	0	M1
TTP	33	288	5	E	0	M1
TTP	34	0	6	E	0	M1
STR	34	96	7
SUL	34	96	7	96	96	3
TTP	35	0	2	E	0	M1
TTP	35	96	1	E	0	M1
TTP	35	192	0	E	0	M1
TTP	35	288	7	E	0	M1
TTP	36	0	6	E	0	M1
STR	36	96	4
SUR	36	96	4	96	96	0
TAP	37	0	2
TAP	37	96	1
TAP	37	96	3
TAP	37	192	5
TAP	37	288	4
TAP	37	288	6
STR	38	0	1
SCR	38	0	1	96	96	3
STR	38	0	5
SCL	38	0	5	96	96	3
TAP	38	288	1
TAP	38	288	5
HLD	39	0	3	288
TAP	39	0	4
TAP	39	144	2
TAP	39	192	2
TAP	39	288	4
TAP	40	0	1
TAP	40	48	1
STR	40	96	3
SCR	40	96	3	96	96	5
TAP	41	0	3
HLD	41	0	4	288
TAP	41	144	5
TAP	41	192	5
TAP	41	288	3
TAP	42	0	6
TAP	42	48	6
STR	42	96	4
SCL	42	96	4	96	96	2
HLD	43	0	3	288
TAP	43	0	4
TAP	43	144	2
TAP	43	192	2
TAP	43	288	4
TAP	44	0	1
TAP	44	48	1
STR	44	96	3
SCR	44	96	3	96	96	5
TAP	45	0	3
TAP	45	0	4
TAP	45	96	1
TAP	45	192	3
TAP	45	192	4
TAP	45	288	6
THO	46	0	0	192	C	1	M1
BRK	47	0	0
BRK	47	0	7
TAP	47	96	2
TAP	47	144	3
STR	47	192	1
SI_	47	192	1	96	48	4
TAP	48	0	5
STR	48	96	1
SCR	48	96	1	96	96	4
STR	48	96	6
SXR	48	96	6	96	96	4
TAP	49	0	0
TAP	49	0	7
TAP	49	96	5
TAP	49	144	4
STR	49	192	6
SI_	49	192	6	96	48	3
TAP	50	0	2
STR	50	96	1
SXL	50	96	1	96	96	3
STR	50	96	6
SCL	50	96	6	96	96	3
TAP	51	0	2
TAP	51	48	2
TAP	51	96	3
TTP	51	192	6	B	0	M1
TTP	51	192	6	E	0	M1
TTP	51	192	7	B	0	M1
TAP	52	0	5
TAP	52	48	5
TAP	52	96	4
TTP	52	192	0	B	0	M1
TTP	52	192	1	B	0	M1
TTP	52	192	2	E	0	M1
TTP	53	0	4	E	0	M1
TTP	53	96	3	E	0	M1
TTP	53	96	5	E	0	M1
TTP	53	192	2	E	0	M1
TTP	53	192	6	E	0	M1
TAP	53	288	0
TAP	53	288	7
BRK	54	0	1
BRK	54	0	6
TAP	54	192	0
TAP	54	288	0
BRK	55	0	6
BRK	55	0	7
TAP	55	96	5
TAP	55	144	4
STR	55	192	6
SI_	55	192	6	96	48	3
TAP	56	0	2
TAP	56	0	4
STR	56	96	3
SCR	56	96	3	96	96	6
SUR	56	96	3	96	96	0
TAP	57	0	0
TAP	57	0	1
TAP	57	96	2
TAP	57	144	3
STR	57	192	1
SI_	57	192	1	96	48	4
TAP	58	0	3
TAP	58	0	5
STR	58	96	4
SCL	58	96	4	96	96	1
SUL	58	96	4	96	96	7
TAP	59	0	5
TAP	59	48	5
TAP	59	96	4
TTP	59	192	0	B	0	M1
TTP	59	192	0	E	0	M1
TTP	59	192	1	B	0	M1
TTP	59	192	2	E	0	M1
TAP	60	0	2
TAP	60	48	2
TAP	60	96	3
TTP	60	192	0	E	0	M1
TTP	60	192	6	B	0	M1
TTP	60	192	6	E	0	M1
TTP	60	192	7	B	0	M1
HLD	61	0	4	192
TAP	61	0	6
TAP	61	96	3
TAP	61	144	3
TAP	61	192	3
TAP	61	288	1
TAP	61	288	6
TAP	62	0	0
HLD	62	0	5	288
TAP	62	96	2
STR	62	192	4
SI_	62	192	4	96	48	0
XTP	63	0	6
TAP	63	96	0
TAP	63	96	1
TAP	63	192	2
TAP	63	288	6
TAP	63	288	7
HLD	64	0	5	96
HLD	64	96	1	96
TAP	64	192	3
TAP	64	240	3
TAP	64	288	3
TAP	65	0	2
TAP	65	96	6
TAP	65	96	7
TAP	65	192	5
TAP	65	288	0
TAP	65	288	1
HLD	66	0	2	96
HLD	66	96	6	96
TAP	66	192	4
TAP	66	240	4
TAP	66	288	4
TAP	67	0	5
TAP	67	96	0
TAP	67	96	1
TAP	67	192	2
TAP	67	288	6
TAP	67	288	7
TAP	68	0	5
TAP	68	48	5
TAP	68	96	1
TAP	68	144	1
TAP	68	192	3
TAP	68	288	2
TAP	68	288	5
STR	69	0	2
SCR	69	0	2	96	48	4
STR	69	0	5
SCR	69	0	5	96	48	7
TAP	69	192	4
TAP	69	192	7
TAP	69	288	4
TAP	69	288	7
TTP	70	0	0	C	1	M1
HLD	70	192	0	96
HLD	70	192	7	96
BRK	71	0	1
HLD	71	0	3	576
TAP	71	96	7
TAP	71	192	1
TAP	71	288	7
TAP	72	0	1
TAP	72	96	7
TAP	72	192	1
TAP	72	288	0
TAP	72	288	7
HLD	73	0	4	576
BRK	73	0	6
TAP	73	96	0
TAP	73	192	6
TAP	73	288	0
TAP	74	0	6
TAP	74	96	0
TAP	74	192	6
TAP	74	288	0
TAP	74	288	7
BRK	75	0	2
BRK	75	0	3
STR	75	96	1
SCL	75	96	1	96	96	6
STR	75	96	2
SUL	75	96	2	96	96	5
BRK	76	0	4
BRK	76	0	5
STR	76	96	5
SUR	76	96	5	96	96	2
STR	76	96	6
SCR	76	96	6	96	96	1
BRK	77	0	2
BRK	77	0	3
TAP	77	96	6
TAP	77	96	7
BRK	77	192	4
BRK	77	192	5
TAP	77	288	0
TAP	77	288	1
XHO	78	0	3	96
XHO	78	0	4	96
TTP	78	192	4	B	0	M1
TTP	78	192	5	B	0	M1
TTP	78	192	6	B	0	M1
BST	79	0	0
SCL	79	0	0	96	672	2
BST	79	0	2
SV_	79	0	2	96	672	0

T_REC_TAP	177
T_REC_BRK	16
T_REC_XTP	2
T_REC_HLD	22
T_REC_XHO	2
T_REC_STR	40
T_REC_BST	2
T_REC_XST	0
T_REC_TTP	53
T_REC_THO	1
T_REC_SLD	44
T_REC_ALL	359
T_NUM_TAP	272
T_NUM_BRK	18
T_NUM_HLD	25
T_NUM_SLD	44
T_NUM_ALL	359
T_JUDGE_TAP	290
T_JUDGE_HLD	126
T_JUDGE_SLD	44
T_JUDGE_ALL	460
TTM_EACHPAIRS	64
TTM_SCR_TAP	136000
TTM_SCR_BRK	46800
TTM_SCR_HLD	25000
TTM_SCR_SLD	66000
TTM_SCR_ALL	273800
TTM_SCR_S	263850
TTM_SCR_SS	272000
TTM_RAT_ACV	10066

