VERSION	0.00.00	1.03.00
FES_MODE	0
BPM_DEF	156.000	156.000	156.000	156.000
MET_DEF	4	4
RESOLUTION	384
CLK_DEF	384
COMPATIBLE_CODE	MA2

BPM	0	0	156.000
MET	0	0	4	4

XHO	5	0	2	384
HLD	6	0	3	384
HLD	7	0	4	384
TAP	8	0	5
HLD	9	0	6	384
HLD	10	0	7	384
HLD	11	0	0	384
XTP	12	0	1
TAP	13	0	2
TAP	13	0	3
TAP	13	192	4
TAP	13	192	5
TAP	14	0	3
TAP	14	0	4
TAP	14	96	3
TAP	14	96	4
XTP	14	192	2
XTP	14	192	5
TAP	15	0	6
TAP	15	96	6
TAP	15	192	6
TAP	15	192	7
TAP	16	0	1
TAP	16	96	1
TAP	16	192	0
TAP	16	192	1
TAP	17	0	6
TAP	17	96	6
TAP	17	192	7
TAP	17	288	7
TAP	18	0	0
TAP	18	96	0
TAP	18	192	1
TAP	18	192	7
TAP	19	0	2
TAP	19	96	2
TAP	19	192	2
TAP	19	192	3
TAP	20	0	5
TAP	20	96	5
TAP	20	192	4
TAP	20	192	5
TAP	21	0	2
TAP	21	96	2
TAP	21	192	3
TAP	21	288	3
TAP	22	0	3
TAP	22	0	4
TAP	22	96	3
TAP	22	96	4
XTP	22	192	2
XTP	22	192	5
HLD	23	0	6	192
TAP	23	192	7
HLD	24	0	1	192
TAP	24	192	0
HLD	25	0	6	192
TAP	25	192	7
TAP	26	0	0
TAP	26	96	0
TAP	26	192	1
TAP	26	192	7
HLD	27	0	2	192
TAP	27	192	3
HLD	28	0	5	192
TAP	28	192	4
HLD	29	0	2	192
TAP	29	192	3
TAP	30	0	4
TAP	30	96	3
TAP	30	192	2
TAP	30	192	5
TAP	31	0	6
TAP	31	96	6
TAP	31	192	7
TAP	32	0	1
TAP	32	96	1
TAP	32	192	0
TAP	33	0	6
TAP	33	96	6
TAP	33	192	7
TAP	34	0	0
TAP	34	96	0
TAP	34	192	1
TAP	34	192	7
TAP	35	0	2
TAP	35	96	2
TAP	35	192	3
TAP	36	0	5
TAP	36	96	5
TAP	36	192	4
TAP	37	0	3
TAP	37	96	3
TAP	37	192	4
TAP	37	288	4
TAP	38	0	3
TAP	38	0	4
TAP	38	96	3
TAP	38	96	4
XTP	38	192	2
XTP	38	192	5
TTP	39	0	1	B	0	L1
TTP	39	192	2	B	0	L1
TTP	40	0	3	B	0	L1
TTP	40	0	4	B	0	L1
TTP	41	0	6	B	0	L1
TTP	41	192	5	B	0	L1
TTP	42	0	3	B	0	L1
TTP	42	0	4	B	0	L1
TTP	43	0	2	B	0	L1
TTP	43	192	3	B	0	L1
TTP	44	0	4	B	0	L1
TTP	44	192	5	B	0	L1
TTP	45	0	1	B	0	L1
TTP	45	0	6	B	0	L1
TTP	45	192	0	B	0	L1
TTP	45	192	7	B	0	L1
TTP	46	0	0	C	0	L1
BRK	47	0	1
TAP	47	96	0
TAP	47	96	1
TAP	47	192	6
TAP	47	288	6
TAP	47	288	7
TAP	48	0	0
TAP	48	96	0
TAP	48	192	1
TAP	48	192	7
TAP	49	0	2
TAP	49	96	2
TAP	49	96	3
TAP	49	192	5
TAP	49	288	4
TAP	49	288	5
TAP	50	0	3
TAP	50	96	3
TAP	50	192	2
TAP	50	192	4
TAP	51	0	1
TAP	51	96	1
TAP	51	192	0
TAP	51	192	1
TAP	52	0	6
TAP	52	96	6
TAP	52	192	6
TAP	52	192	7
TAP	53	0	0
TAP	53	96	0
TAP	53	192	7
TAP	53	288	7
TAP	54	0	0
TAP	54	0	7
TAP	54	96	0
TAP	54	96	7
XTP	54	192	1
XTP	54	192	6
BRK	55	0	5
TAP	55	96	4
TAP	55	96	5
TAP	55	192	2
TAP	55	288	2
TAP	55	288	3
TAP	56	0	4
TAP	56	96	4
TAP	56	192	3
TAP	56	192	5
TAP	57	0	6
TAP	57	96	6
TAP	57	96	7
TAP	57	192	1
TAP	57	288	0
TAP	57	288	1
TAP	58	0	7
TAP	58	96	7
TAP	58	192	0
TAP	58	192	6
TAP	59	0	5
TAP	59	96	5
TAP	59	192	4
TAP	59	192	5
TAP	60	0	2
TAP	60	96	2
TAP	60	192	2
TAP	60	192	3
TAP	61	0	1
TAP	61	96	1
TAP	61	192	0
TAP	61	288	0
STR	62	0	0
SI_	62	0	0	96	144	4
STR	62	0	7
SI_	62	0	7	96	144	3
TAP	63	0	2
TAP	63	96	2
TAP	63	192	2
TAP	63	192	3
TAP	64	0	5
TAP	64	96	5
TAP	64	192	4
TAP	64	192	5
TAP	65	0	2
TAP	65	96	2
TAP	65	192	3
TAP	65	288	3
TAP	66	0	4
TAP	66	96	4
TAP	66	192	3
TAP	66	192	5
TAP	67	0	6
TAP	67	96	6
TAP	67	192	6
TAP	67	192	7
TAP	68	0	1
TAP	68	96	1
TAP	68	192	0
TAP	68	192	1
TAP	69	0	6
TAP	69	96	6
TAP	69	192	7
TAP	69	288	7
TAP	70	0	0
TAP	70	0	7
TAP	70	96	0
TAP	70	96	7
XTP	70	192	1
XTP	70	192	6
STR	71	0	5
SI_	71	0	5	96	144	0
TAP	72	0	1
TAP	72	96	1
TAP	72	192	0
STR	73	0	1
SI_	73	0	1	96	144	4
TAP	74	0	5
TAP	74	96	5
TAP	74	192	4
STR	75	0	5
SI_	75	0	5	96	144	2
STR	76	0	1
SI_	76	0	1	96	144	4
TAP	77	0	5
TAP	77	192	6
HLD	78	0	0	192
HLD	78	0	7	192
XST	79	0	0
SXL	79	0	0	96	480	3
XST	79	0	7
SXR	79	0	7	96	480	4

T_REC_TAP	188
T_REC_BRK	2
T_REC_XTP	11
T_REC_HLD	13
T_REC_XHO	1
T_REC_STR	6
T_REC_BST	0
T_REC_XST	2
T_REC_TTP	17
T_REC_THO	0
T_REC_SLD	8
T_REC_ALL	248
T_NUM_TAP	224
T_NUM_BRK	2
T_NUM_HLD	14
T_NUM_SLD	8
T_NUM_ALL	248
T_JUDGE_TAP	226
T_JUDGE_HLD	80
T_JUDGE_SLD	8
T_JUDGE_ALL	314
TTM_EACHPAIRS	49
TTM_SCR_TAP	112000
TTM_SCR_BRK	5200
TTM_SCR_HLD	14000
TTM_SCR_SLD	12000
TTM_SCR_ALL	143200
TTM_SCR_S	138750
TTM_SCR_SS	143000
TTM_RAT_ACV	10013

