VERSION	0.00.00	1.04.00
FES_MODE	0
BPM_DEF	188.000	188.000	188.000	188.000
MET_DEF	4	4
RESOLUTION	384
CLK_DEF	384
COMPATIBLE_CODE	MA2

BPM	0	0	188.000
MET	0	0	4	4

NMTAP	1	288	3
NMTAP	1	312	4
NMTAP	1	336	3
NMTAP	1	360	4
EXSTR	2	0	3
NMSCL	2	0	3	96	96	7
NMSTR	2	96	7
NMSCL	2	96	7	96	96	3
NMTAP	2	192	3
NMTAP	2	288	7
NMHLD	3	0	1	192
NMHLD	3	0	6	192
NMTAP	3	240	0
NMTAP	3	264	7
BRTAP	3	288	1
BRTAP	3	288	6
NMTAP	4	0	1
NMTAP	4	0	4
NMTAP	4	48	2
NMTAP	4	96	3
NMTAP	4	96	6
NMSTR	4	144	5
NMSI_	4	144	5	96	48	7
NMSTR	4	240	3
NMSI_	4	240	3	96	48	1
NMSTR	4	336	4
NMSI_	4	336	4	96	48	6
NMSTR	5	48	2
NMSI_	5	48	2	96	48	0
NMSTR	5	144	4
NMSCR	5	144	4	96	48	7
EXTAP	5	240	0
NMTAP	5	288	1
NMTAP	5	336	2
NMTAP	6	0	3
NMTAP	6	0	6
NMTAP	6	48	5
NMTAP	6	96	1
NMTAP	6	96	4
NMSTR	6	144	2
NMSI_	6	144	2	96	48	0
NMSTR	6	240	4
NMSI_	6	240	4	96	48	6
NMSTR	6	336	3
NMSI_	6	336	3	96	48	1
NMSTR	7	48	5
NMSUL	7	48	5	96	144	3
NMHLD	7	144	0	144
NMTAP	8	0	1
NMTAP	8	0	4
NMTAP	8	48	2
NMTAP	8	96	3
NMTAP	8	96	6
NMSTR	8	144	5
NMSI_	8	144	5	96	48	0
NMSTR	8	240	1
NMSI_	8	240	1	96	48	4
NMSTR	8	336	6
NMSI_	8	336	6	96	48	3
NMSTR	9	48	2
NMSI_	9	48	2	96	48	7
NMSTR	9	144	4
NMSCR	9	144	4	96	48	7
EXTAP	9	240	0
NMTAP	9	288	1
NMTAP	9	336	2
NMTAP	10	0	3
NMTAP	10	0	6
NMTAP	10	48	5
NMTAP	10	96	1
NMTAP	10	96	4
NMSTR	10	144	2
NMSI_	10	144	2	96	48	7
NMSTR	10	240	6
NMSI_	10	240	6	96	48	3
NMSTR	10	336	1
NMSI_	10	336	1	96	48	4
NMSTR	11	48	5
NMSXL	11	48	5	96	144	3
NMHLD	11	144	1	144
NMTAP	12	0	0
NMTAP	12	0	6
NMTAP	12	96	3
NMTAP	12	96	4
NMTAP	12	192	1
NMTAP	12	192	7
NMTAP	12	240	1
NMTAP	12	240	7
NMSTR	12	336	0
NMSI_	12	336	0	96	48	4
NMSTR	12	336	7
NMSI_	12	336	7	96	48	3
NMTAP	13	48	0
NMTAP	13	48	7
BRTAP	13	144	1
BRTAP	13	144	6
NMTAP	14	0	2
NMTAP	14	0	4
NMHLD	14	48	2	336
NMTAP	14	48	4
NMTAP	14	192	3
NMTAP	14	288	3
NMSTR	15	0	3
NMSUR	15	0	3	96	192	5
NMTAP	15	144	2
NMTAP	16	0	3
NMTAP	16	0	5
NMTAP	16	48	3
NMHLD	16	48	5	336
NMTAP	16	192	4
NMTAP	16	288	4
NMSTR	17	0	4
NMSSL	17	0	4	96	192	0
NMTAP	17	144	5
NMTAP	18	0	1
NMTAP	18	0	3
NMHLD	18	48	1	336
NMTAP	18	48	3
NMTAP	18	192	2
NMTAP	18	288	2
NMSTR	19	0	3
NMSUR	19	0	3	96	192	5
NMTAP	19	144	1
NMTAP	20	0	0
NMTAP	20	0	6
NMHLD	20	48	0	144
NMHLD	20	48	6	144
NMTAP	20	240	0
NMTAP	20	240	6
NMTAP	20	256	1
NMTAP	20	256	5
NMTAP	20	272	2
NMTAP	20	272	4
BRTAP	20	288	3
NMTAP	21	0	3
NMTAP	21	0	4
NMTAP	21	96	2
EXHLD	21	144	2	240
EXTAP	21	240	1
EXTAP	21	264	0
EXTAP	21	288	7
EXTAP	21	312	6
EXTAP	21	336	5
EXTAP	21	360	4
EXTAP	22	0	3
NMTAP	22	96	1
NMTAP	22	120	3
NMTAP	22	144	1
NMTAP	22	168	3
NMTAP	22	192	2
NMTAP	22	216	4
NMTAP	22	240	3
NMTAP	22	264	5
BRTAP	22	288	4
NMTAP	23	0	2
NMTAP	23	24	3
NMTAP	23	48	2
NMTAP	23	72	3
NMTAP	23	96	1
NMTAP	23	120	4
NMTAP	23	144	1
NMTAP	23	168	4
NMTAP	23	192	0
NMTAP	23	216	1
NMTAP	23	240	2
NMTAP	23	264	3
NMTAP	23	288	0
NMTAP	23	312	1
NMTAP	23	336	2
NMTAP	23	360	3
NMTAP	24	0	0
NMTAP	24	0	4
NMTAP	24	96	6
NMTAP	24	120	4
NMTAP	24	144	6
NMTAP	24	168	4
NMTAP	24	192	5
NMTAP	24	216	3
NMTAP	24	240	4
NMTAP	24	264	2
BRTAP	24	288	3
NMTAP	25	0	5
NMTAP	25	24	4
NMTAP	25	48	5
NMTAP	25	72	4
NMTAP	25	96	6
NMTAP	25	120	3
NMTAP	25	144	6
NMTAP	25	168	3
NMTAP	25	192	7
NMTAP	25	216	6
NMTAP	25	240	5
NMTAP	25	264	4
NMTAP	25	288	7
NMTAP	25	312	6
NMTAP	25	336	5
NMTAP	25	360	4
NMTAP	26	0	3
NMTAP	26	0	7
NMTAP	26	96	6
NMTAP	26	120	4
NMTAP	26	144	5
NMTAP	26	168	3
NMTAP	26	192	4
NMTAP	26	216	2
NMTAP	26	240	3
NMTAP	26	264	1
BRTAP	26	288	2
NMTAP	27	0	0
NMTAP	27	24	1
NMTAP	27	48	2
NMTAP	27	72	3
NMTAP	27	96	4
NMTAP	27	120	5
NMTAP	27	144	6
NMTAP	27	168	7
NMTAP	27	192	0
NMTAP	27	216	1
NMTAP	27	240	2
NMTAP	27	264	3
NMTAP	27	288	0
NMTAP	27	312	1
NMTAP	27	336	2
NMTAP	27	360	3
NMTAP	28	0	0
NMTAP	28	0	4
NMTAP	28	96	1
NMTAP	28	120	4
NMTAP	28	144	2
NMTAP	28	168	5
NMTAP	28	192	3
NMTAP	28	216	6
NMTAP	28	240	4
EXTAP	28	288	3
EXTAP	28	288	7
NMTAP	29	0	6
NMTAP	29	24	5
NMTAP	29	48	4
NMTAP	29	72	3
NMTAP	29	96	2
NMTAP	29	120	1
NMTAP	29	144	0
NMTAP	29	168	7
BRHLD	29	192	2	96
BRHLD	29	192	6	96
NMSTR	30	0	3
NMSCL	30	0	3	96	48	0
NMTAP	30	64	4
NMTAP	30	128	5
NMSTR	30	192	6
NMSCL	30	192	6	96	48	3
NMTAP	30	256	7
NMTAP	30	320	0
NMSTR	31	0	1
NMSCL	31	0	1	96	48	6
NMTAP	31	64	2
NMTAP	31	128	3
BXTAP	31	192	4
BXTAP	31	192	5
NMSTR	32	0	0
NMSCR	32	0	0	96	48	3
NMTAP	32	64	7
NMTAP	32	128	6
NMSTR	32	192	5
NMSCR	32	192	5	96	48	0
NMTAP	32	256	4
NMTAP	32	320	3
NMSTR	33	0	2
NMSCR	33	0	2	96	48	5
NMTAP	33	64	1
NMTAP	33	128	0
BRTAP	33	192	6
BRTAP	33	192	7
NMSTR	34	0	4
NMSI_	34	0	4	96	48	7
NMTAP	34	64	3
NMTAP	34	128	2
NMSTR	34	192	1
NMSI_	34	192	1	96	48	4
NMTAP	34	256	0
NMTAP	34	320	7
NMSTR	35	0	6
NMSI_	35	0	6	96	48	1
NMTAP	35	64	5
NMTAP	35	128	4
NMSTR	35	192	3
BRSI_	35	192	3	96	48	7
BRTAP	35	288	3
NMTAP	36	0	0
NMTAP	36	0	6
NMTAP	36	96	1
NMTAP	36	96	3
NMTAP	36	192	4
NMTAP	36	192	6
NMTAP	36	240	5
NMTAP	36	288	1
NMTAP	36	288	3
NMHLD	36	336	2	384
NMTAP	37	48	3
NMTAP	37	96	3
NMTAP	37	144	3
NMTAP	37	192	1
NMTAP	37	240	1
NMTAP	37	288	1
NMTAP	37	336	0
NMSTR	38	0	0
NMSCL	38	0	0	96	48	5
NMTAP	38	96	0
NMSTR	38	144	4
NMSCL	38	144	4	96	48	1
NMTAP	38	240	4
NMHLD	38	288	7	144
NMTAP	39	48	0
NMTAP	39	96	1
NMTAP	39	96	3
NMTAP	39	144	4
NMTAP	39	144	6
BRTAP	39	192	0
BRTAP	39	192	7
NMSTR	40	0	2
NMSI_	40	0	2	96	48	7
NMTAP	40	0	4
NMTAP	40	96	2
EXSTR	40	96	6
NMSI_	40	96	6	96	48	3
NMSTR	40	192	0
NMSI_	40	192	0	96	48	4
NMTAP	40	192	6
NMTAP	40	240	1
NMTAP	40	288	0
NMTAP	40	288	7
BRSTR	40	336	6
NMSLL	40	336	6	96	96	2
NMTAP	41	48	1
NMTAP	41	96	1
NMTAP	41	192	0
NMTAP	41	216	7
NMTAP	41	240	6
NMTAP	41	264	5
NMTAP	41	288	0
NMTAP	41	288	4
NMTAP	41	312	7
NMTAP	41	336	6
NMTAP	41	360	5
NMTAP	42	0	0
NMTAP	42	0	4
NMTAP	42	96	2
NMTAP	42	96	3
NMTAP	42	144	1
NMTAP	42	192	4
NMTAP	42	192	5
NMTAP	42	240	6
NMTAP	42	288	1
NMTAP	42	288	7
NMTAP	42	336	1
NMTAP	42	336	7
NMTTP	43	48	0	B	0	M1
NMTTP	43	48	1	E	0	M1
NMTTP	43	48	6	A	0	M1
NMTTP	43	48	7	B	0	M1
NMTTP	43	48	7	E	0	M1
NMTTP	43	144	1	A	0	M1
NMTTP	43	144	2	B	0	M1
NMTTP	43	144	2	E	0	M1
NMTTP	43	144	3	B	0	M1
NMTTP	43	240	3	A	0	M1
NMTTP	43	240	4	B	0	M1
NMTTP	43	240	4	E	1	M1
NMTTP	43	240	5	B	0	M1
NMTAP	44	0	0
NMSTR	44	0	6
NMSI_	44	0	6	96	48	3
NMSTR	44	96	2
NMSI_	44	96	2	96	48	7
NMTAP	44	96	6
NMTAP	44	192	2
NMSTR	44	192	4
NMSI_	44	192	4	96	48	0
NMTAP	44	240	5
NMTAP	44	288	3
NMTAP	44	288	4
BRSTR	44	336	1
NMSLR	44	336	1	96	96	5
NMTAP	45	48	6
NMTAP	45	96	6
NMTAP	45	192	7
NMTAP	45	216	0
NMTAP	45	240	1
NMTAP	45	264	2
NMTAP	45	288	3
NMTAP	45	288	7
NMTAP	45	312	0
NMTAP	45	336	1
NMTAP	45	360	2
NMTAP	46	0	3
NMTAP	46	0	7
NMTAP	46	96	4
NMTAP	46	96	5
NMTAP	46	144	6
NMTAP	46	192	2
NMTAP	46	192	3
NMTAP	46	240	1
NMTAP	46	288	0
NMTAP	46	288	7
NMTAP	46	336	0
NMTAP	46	336	7
BRTAP	47	48	0
BRTAP	47	48	6
BRTAP	47	96	1
BRTAP	47	96	5
BRTAP	47	144	2
BRTAP	47	144	4
BXTAP	47	192	3
EXTAP	47	216	3
EXTAP	47	240	3
NMTAP	47	288	2
NMTAP	47	288	4
NMTAP	47	336	2
NMTAP	47	336	4
NMTAP	48	48	3
NMTAP	48	48	5
NMTAP	48	96	3
NMTAP	48	96	5
NMTAP	48	192	1
NMTAP	48	192	7
NMTAP	48	240	1
NMTAP	48	240	7
NMHLD	48	336	0	48
EXTAP	48	336	6
EXTAP	48	348	5
EXTAP	48	360	4
EXTAP	49	48	1
NMHLD	49	48	7	48
EXTAP	49	64	2
EXTAP	49	80	3
NMHLD	49	144	0	48
EXTAP	49	144	5
EXTAP	49	160	4
EXTAP	49	176	3
EXTAP	49	240	2
NMHLD	49	240	7	48
EXTAP	49	256	3
EXTAP	49	272	4
EXTAP	49	336	0
EXTAP	49	336	6
EXTAP	49	352	1
EXTAP	49	352	5
EXSTR	49	368	2
NMSXR	49	368	2	96	160	4
EXTAP	49	368	4
EXTAP	50	0	3
NMTAP	50	96	4
NMTAP	50	192	6
NMTAP	50	288	7
NMSTR	50	336	7
NMSUL	50	336	7	96	48	3
NMTAP	51	48	1
NMTAP	51	48	7
NMSTR	51	96	1
NMSLR	51	96	1	96	48	5
NMTAP	51	192	1
NMTAP	51	192	7
NMTAP	51	240	6
NMTAP	51	288	6
NMSTR	52	0	6
NMSCL	52	0	6	96	48	3
NMTAP	52	48	7
NMTAP	52	96	6
NMTAP	52	144	0
NMSTR	52	192	1
NMSCR	52	192	1	96	48	4
NMTAP	52	240	0
NMTAP	52	288	1
NMTAP	52	336	7
NMSTR	53	0	6
NMSCL	53	0	6	96	48	4
NMTAP	53	48	7
NMTAP	53	96	6
CNSUL	53	144	4	0	48	0
NMHLD	53	144	7	96
NMTAP	53	336	0
NMTAP	53	336	7
NMTAP	54	0	0
NMTAP	54	0	7
NMTAP	54	96	1
NMTAP	54	144	1
NMTAP	54	192	1
NMTAP	54	240	0
NMTAP	54	240	2
BRTAP	54	336	3
BRHLD	54	336	4	240
NMTTP	55	48	5	A	0	M1
NMTTP	55	72	6	A	0	M1
NMTTP	55	96	7	A	0	M1
NMTTP	55	120	0	A	0	M1
NMTTP	55	144	1	A	0	M1
NMTTP	55	168	2	A	0	M1
NMTTP	55	192	3	A	0	M1
NMTAP	55	288	4
NMTAP	55	336	3
NMTAP	55	336	5
NMTAP	56	48	4
NMTAP	56	48	6
NMTAP	56	96	4
NMTAP	56	96	6
NMTAP	56	192	1
NMTAP	56	192	3
NMTAP	56	240	1
NMTAP	56	240	3
EXTAP	56	336	1
NMHLD	56	336	7	48
EXTAP	56	348	2
EXTAP	56	360	3
NMHLD	57	48	0	48
EXTAP	57	48	6
EXTAP	57	64	5
EXTAP	57	80	4
EXTAP	57	144	2
NMHLD	57	144	7	48
EXTAP	57	160	3
EXTAP	57	176	4
NMHLD	57	240	0	48
EXTAP	57	240	5
EXTAP	57	256	4
EXTAP	57	272	3
NMTAP	57	336	1
NMTAP	57	336	7
NMTAP	57	352	2
NMTAP	57	352	6
NMTAP	57	368	3
NMSTR	57	368	5
NMSXL	57	368	5	96	160	3
NMTAP	58	0	4
NMTAP	58	96	3
NMTAP	58	192	1
NMTAP	58	288	0
NMSTR	58	336	0
NMSI_	58	336	0	96	48	4
NMTAP	59	48	0
NMTAP	59	48	6
NMSTR	59	96	6
NMSI_	59	96	6	96	48	2
NMHLD	59	192	1	96
NMTAP	59	192	6
CNSLR	59	240	2	0	48	7
NMTAP	60	0	4
NMTAP	60	0	6
NMSTR	60	48	4
NMSCL	60	48	4	96	48	1
NMTAP	60	48	6
NMTAP	60	192	0
NMSTR	60	240	0
NMSCL	60	240	0	96	48	5
NMSTR	60	336	3
NMSCL	60	336	3	96	48	0
NMTAP	61	48	6
NMSTR	61	96	7
NMSI_	61	96	7	96	48	2
NMSI_	61	96	7	96	48	4
NMTAP	61	192	7
CNSCL	61	240	2	0	48	0
CNSCR	61	240	4	0	48	6
NMTAP	62	0	1
NMTAP	62	0	3
NMTAP	62	48	1
NMSTR	62	48	3
NMSCR	62	48	3	96	48	6
NMTAP	62	192	7
NMHLD	62	240	7	96
NMTAP	62	336	3
NMTAP	63	48	0
NMTAP	63	48	4
NMTAP	63	96	0
NMTAP	63	96	4
EXTAP	63	192	1
EXTAP	63	204	2
EXTAP	63	216	3
EXTAP	63	228	4
EXTAP	63	240	5
EXTAP	63	252	6
EXTAP	63	264	7
EXTAP	63	276	0
BXTAP	63	288	1
BXTAP	63	288	5
NMTAP	64	0	3
NMTAP	64	0	6
NMTAP	64	48	5
NMTAP	64	96	1
NMTAP	64	96	4
NMSTR	64	144	2
NMSI_	64	144	2	96	48	0
NMSTR	64	240	4
NMSI_	64	240	4	96	48	6
NMSTR	64	336	3
NMSI_	64	336	3	96	48	1
NMSTR	65	48	5
NMSI_	65	48	5	96	48	7
NMSTR	65	144	3
NMSCL	65	144	3	96	48	0
EXTAP	65	240	7
NMTAP	65	288	6
NMTAP	65	336	5
NMTAP	66	0	1
NMTAP	66	0	4
NMTAP	66	48	2
NMTAP	66	96	3
NMTAP	66	96	6
NMSTR	66	144	5
NMSI_	66	144	5	96	48	7
NMSTR	66	240	3
NMSI_	66	240	3	96	48	1
NMSTR	66	336	4
NMSI_	66	336	4	96	48	6
NMSTR	67	48	2
NMSUR	67	48	2	96	144	4
NMHLD	67	144	7	144
NMTAP	68	0	3
NMTAP	68	0	6
NMTAP	68	48	5
NMTAP	68	96	1
NMTAP	68	96	4
NMSTR	68	144	2
NMSI_	68	144	2	96	48	7
NMSTR	68	240	6
NMSI_	68	240	6	96	48	3
NMSTR	68	336	1
NMSI_	68	336	1	96	48	4
NMSTR	69	48	5
NMSI_	69	48	5	96	48	0
NMSTR	69	144	3
NMSCL	69	144	3	96	48	0
NMTAP	69	240	7
NMTAP	69	288	6
NMTAP	69	336	5
NMTAP	70	0	1
NMTAP	70	0	4
NMTAP	70	48	2
NMTAP	70	96	3
NMTAP	70	96	6
NMSTR	70	144	5
NMSI_	70	144	5	96	48	1
NMHLD	70	240	0	96
NMTAP	70	336	7
NMTAP	71	0	1
NMTAP	71	0	6
NMTAP	71	48	2
NMTAP	71	48	5
NMTAP	71	96	3
NMTAP	71	96	4
BRTAP	71	144	2
BRTAP	71	144	5
NMTTP	72	0	1	E	0	M1
NMTTP	72	96	2	E	0	M1
NMTTP	72	192	3	E	0	M1
NMTTP	72	288	4	E	0	M1
NMTTP	73	0	0	C	0	M1
NMTTP	73	0	5	E	0	M1
NMTTP	73	96	6	E	0	M1
NMTTP	73	192	7	E	0	M1
NMTTP	73	288	0	E	0	M1
NMTTP	74	0	0	C	0	M1
NMTTP	74	0	1	E	0	M1
NMTTP	74	96	2	E	0	M1
NMTTP	74	192	3	E	0	M1
NMTTP	74	288	4	E	0	M1
NMTTP	75	0	0	C	0	M1
NMTTP	75	0	5	E	0	M1
NMTTP	75	96	0	B	0	M1
NMTTP	75	96	1	E	0	M1
NMTTP	75	96	6	A	0	M1
NMTTP	75	96	7	B	0	M1
NMTTP	75	96	7	E	0	M1
NMTTP	75	192	1	A	0	M1
NMTTP	75	192	2	B	0	M1
NMTTP	75	192	2	E	0	M1
NMTTP	75	192	3	B	0	M1
NMTTP	75	288	3	A	0	M1
NMTTP	75	288	4	B	0	M1
NMTTP	75	288	4	E	0	M1
NMTTP	75	288	5	B	0	M1
NMTTP	76	0	0	C	0	M1
NMTTP	76	0	7	A	0	M1
NMTTP	76	96	6	A	0	M1
NMTTP	76	192	5	A	0	M1
NMTTP	76	288	4	A	0	M1
NMTTP	77	0	0	C	0	M1
NMTTP	77	0	3	A	0	M1
NMTTP	77	96	2	A	0	M1
NMTTP	77	192	1	A	0	M1
NMTTP	77	288	0	A	0	M1
NMHLD	78	0	1	96
NMTTP	78	0	4	B	0	M1
NMTTP	78	0	5	B	0	M1
NMTTP	78	0	5	E	1	M1
NMTTP	78	192	2	B	0	M1
NMTTP	78	192	3	B	0	M1
NMTTP	78	192	3	E	1	M1
NMHLD	78	192	6	96
NMTTP	78	336	0	A	0	M1
NMTTP	78	336	1	E	0	M1
NMTTP	78	336	7	E	0	M1
NMTTP	78	336	7	A	1	M1
NMTAP	79	48	4
NMTAP	79	96	3
NMTAP	79	96	5
BRTAP	79	192	2
BRTAP	79	240	2
BRTAP	79	288	2
NMSTR	79	336	1
NMSXR	79	336	1	96	192	3
NMTAP	79	336	3
NMTAP	80	48	4
NMTAP	80	96	5
EXTAP	80	144	6
NMTAP	80	192	5
NMTAP	80	240	4
EXTAP	80	336	2
NMHLD	80	336	4	48
EXTAP	80	348	1
EXTAP	80	360	0
NMHLD	81	48	0	48
EXTAP	81	48	6
EXTAP	81	64	5
EXTAP	81	80	4
EXTAP	81	144	3
NMHLD	81	144	5	48
EXTAP	81	160	2
EXTAP	81	176	1
NMHLD	81	240	3	48
EXTAP	81	240	7
EXTAP	81	256	6
EXTAP	81	272	5
NMTAP	81	336	2
NMTAP	81	336	4
NMSTR	81	352	1
NMSV_	81	352	1	96	80	4
NMTAP	81	352	5
NMTAP	81	368	0
NMTAP	81	368	6
EXTAP	82	0	7
NMTAP	82	96	6
CNSLL	82	144	4	0	96	7
NMTAP	82	192	5
NMTAP	82	288	6
NMSTR	82	336	6
NMSUL	82	336	6	96	48	2
NMTAP	83	48	0
NMTAP	83	48	6
NMSTR	83	96	0
NMSLR	83	96	0	96	48	4
NMTAP	83	192	0
NMTAP	83	192	5
NMTAP	83	240	6
NMTAP	83	288	7
NMSTR	84	0	6
NMSI_	84	0	6	96	48	3
NMTAP	84	48	7
NMTAP	84	96	6
NMTAP	84	144	0
CNSCR	84	144	3	0	48	5
NMSTR	84	192	1
NMSI_	84	192	1	96	48	4
NMTAP	84	240	0
NMTAP	84	288	1
CNSCL	84	336	4	0	48	2
NMTAP	84	336	7
NMSTR	85	0	6
NMSI_	85	0	6	96	48	2
NMTAP	85	48	7
NMTAP	85	96	6
CNSLR	85	144	2	0	96	0
NMHLD	85	144	7	96
NMTAP	85	336	0
NMTAP	85	336	7
NMTAP	86	0	0
NMTAP	86	0	7
NMTAP	86	96	5
NMTAP	86	144	5
NMTAP	86	192	5
NMTAP	86	240	4
NMTAP	86	240	6
BRHLD	86	336	3	240
EXTAP	86	336	7
NMTTP	87	48	4	A	0	M1
NMTTP	87	60	5	D	0	M1
NMTTP	87	72	5	A	0	M1
NMTTP	87	84	6	D	0	M1
NMTTP	87	96	6	A	0	M1
NMTTP	87	108	7	D	0	M1
NMTTP	87	120	7	A	0	M1
NMTTP	87	132	0	D	0	M1
NMTTP	87	144	0	A	0	M1
NMTTP	87	156	1	D	0	M1
NMTTP	87	168	1	A	0	M1
NMTTP	87	180	2	D	0	M1
NMTTP	87	192	2	A	1	M1
NMTAP	87	288	4
NMTAP	87	336	3
NMTAP	87	336	5
NMTAP	88	48	2
NMTAP	88	48	4
NMTAP	88	96	2
NMTAP	88	96	4
NMTAP	88	192	1
NMTAP	88	192	5
NMTAP	88	240	1
NMTAP	88	240	5
BXSTR	88	336	0
NMSI_	88	336	0	96	48	4
BXTAP	88	336	4
NMTAP	88	352	1
NMTAP	88	352	5
NMTAP	88	368	2
NMTAP	88	368	6
NMTAP	89	48	0
BXTAP	89	144	3
BXSTR	89	144	7
NMSI_	89	144	7	96	48	3
NMTAP	89	160	2
NMTAP	89	160	6
NMTAP	89	176	1
NMTAP	89	176	5
NMTAP	89	240	7
BRTAP	89	336	1
BRTAP	89	336	5
NMTAP	89	352	2
NMTAP	89	352	6
NMSTR	89	368	3
NMSLL	89	368	3	96	160	6
NMSTR	89	368	7
NMSLL	89	368	7	96	160	2
NMTAP	90	0	0
NMTAP	90	0	4
NMTAP	90	336	0
NMTAP	90	336	4
NMTAP	91	48	3
NMTAP	91	48	7
NMSTR	91	96	3
BRSXL	91	96	3	96	96	3
BRSXR	91	96	3	96	96	3
NMTAP	91	96	7
NMTAP	92	0	4
NMTAP	92	0	6
NMSTR	92	48	4
NMSCL	92	48	4	96	48	1
NMTAP	92	48	6
NMTAP	92	192	0
NMSTR	92	240	0
NMSCL	92	240	0	96	48	5
NMSTR	92	336	3
NMSCL	92	336	3	96	48	0
NMTAP	93	48	6
NMSTR	93	96	7
NMSUL	93	96	7	96	48	2
NMSUR	93	96	7	96	48	4
NMTAP	93	192	7
NMTAP	94	0	1
NMTAP	94	0	3
NMTAP	94	48	1
NMSTR	94	48	3
NMSCR	94	48	3	96	48	6
NMTAP	94	192	7
NMSTR	94	240	7
NMSCR	94	240	7	96	48	2
NMSTR	94	336	4
NMSCR	94	336	4	96	48	7
NMTAP	95	48	1
NMSTR	95	96	0
NMSI_	95	96	0	96	48	3
NMSI_	95	96	0	96	48	5
NMTAP	95	192	0
CNSI_	95	240	3	0	48	1
CNSI_	95	240	5	0	48	7
NMTAP	96	0	4
NMTAP	96	0	6
NMSTR	96	48	4
NMSCL	96	48	4	96	48	1
NMTAP	96	48	6
NMTAP	96	192	0
NMSTR	96	240	0
NMSCL	96	240	0	96	48	5
NMSTR	96	336	3
NMSCL	96	336	3	96	48	0
NMTAP	97	48	6
NMSTR	97	96	7
NMSLL	97	96	7	96	96	2
NMSLR	97	96	7	96	96	4
NMTAP	97	192	7
NMTAP	98	0	1
NMTAP	98	0	3
NMTAP	98	48	1
NMSTR	98	48	3
NMSCR	98	48	3	96	48	6
NMTAP	98	192	7
NMSTR	98	240	7
NMSCR	98	240	7	96	48	2
NMSTR	98	336	4
NMSCR	98	336	4	96	48	7
NMTAP	99	48	1
NMSTR	99	96	0
NMSV_	99	96	0	96	48	3
NMSV_	99	96	0	96	48	5
NMTTP	99	192	0	A	1	M1
NMSTR	99	336	4
NMSCL	99	336	4	96	48	1
NMTAP	100	48	6
NMSTR	100	96	7
NMSV_	100	96	7	96	48	2
NMSV_	100	96	7	96	48	4
NMTTP	100	192	7	A	1	M1
NMTAP	100	336	1
NMTAP	100	336	5
NMTAP	101	48	2
NMTAP	101	48	6
NMTAP	101	96	0
NMTAP	101	96	4
NMTAP	101	192	1
NMTAP	101	204	2
NMTAP	101	216	3
NMTAP	101	228	4
NMTAP	101	240	5
NMTAP	101	252	6
NMTAP	101	264	7
NMTAP	101	276	0
BRTAP	101	288	1
BRTAP	101	288	5
NMTAP	102	0	2
NMTAP	102	0	7
NMTAP	102	48	6
NMTAP	102	96	0
NMTAP	102	96	5
NMSTR	102	144	1
NMSI_	102	144	1	96	48	4
NMSTR	102	240	5
NMSI_	102	240	5	96	48	1
NMSTR	102	336	0
NMSI_	102	336	0	96	48	4
NMSTR	103	48	6
NMSI_	103	48	6	96	48	3
NMSTR	103	144	2
NMSCL	103	144	2	96	48	7
NMTAP	103	240	4
NMTAP	103	288	5
NMTAP	103	336	6
NMTAP	104	0	1
NMTAP	104	0	7
NMTAP	104	48	2
NMTAP	104	96	3
NMTAP	104	96	7
NMSTR	104	144	6
NMSI_	104	144	6	96	48	2
NMSTR	104	240	1
NMSI_	104	240	1	96	48	5
NMSTR	104	336	7
NMSI_	104	336	7	96	48	3
NMSTR	105	48	0
BRSI_	105	48	0	96	48	2
CNSV_	105	192	2	0	48	4
CNSCR	105	240	4	0	48	7
NMTAP	106	0	0
NMTAP	106	0	5
NMTAP	106	48	1
NMTAP	106	96	2
NMTAP	106	96	7
NMSTR	106	144	6
NMSI_	106	144	6	96	48	3
NMSTR	106	240	2
NMSI_	106	240	2	96	48	6
NMSTR	106	336	7
NMSI_	106	336	7	96	48	3
NMSTR	107	48	1
NMSI_	107	48	1	96	48	4
NMSTR	107	144	5
NMSCR	107	144	5	96	48	0
NMTAP	107	240	3
NMTAP	107	288	2
NMTAP	107	336	1
NMTAP	108	0	0
NMTAP	108	0	6
NMTAP	108	48	5
NMTAP	108	96	0
NMTAP	108	96	4
NMSTR	108	144	1
NMSI_	108	144	1	96	48	5
NMSTR	108	240	6
NMSI_	108	240	6	96	48	2
NMSTR	108	336	0
NMSI_	108	336	0	96	48	4
BRHLD	109	144	2	144
BRHLD	109	144	6	96
NMTAP	110	0	1
NMTAP	110	0	3
NMTAP	110	96	4
NMTAP	110	96	6
NMTAP	110	192	1
NMTAP	110	192	5
NMSTR	110	240	1
NMSI_	110	240	1	96	48	4
NMSTR	110	240	5
NMSI_	110	240	5	96	48	0
EXTAP	110	336	1
EXTAP	110	336	5
BRSTR	111	48	2
BRSI_	111	48	2	96	48	7
BRSTR	111	48	6
BRSI_	111	48	6	96	48	3
BRTAP	111	144	2
BRTAP	111	144	6
NMTTP	111	168	0	C	1	M1
NMTTP	111	168	2	E	0	M1
NMTTP	111	168	6	E	0	M1

T_REC_TAP	510
T_REC_BRK	31
T_REC_XTP	69
T_REC_BXX	7
T_REC_HLD	31
T_REC_XHO	1
T_REC_BHO	6
T_REC_BXH	0
T_REC_STR	116
T_REC_BST	4
T_REC_XST	3
T_REC_XBS	2
T_REC_TTP	87
T_REC_THO	0
T_REC_SLD	126
T_REC_BSL	6
T_REC_ALL	999
T_NUM_TAP	785
T_NUM_BRK	56
T_NUM_HLD	32
T_NUM_SLD	126
T_NUM_ALL	999
T_JUDGE_TAP	829
T_JUDGE_HLD	105
T_JUDGE_SLD	132
T_JUDGE_ALL	1066
TTM_EACHPAIRS	179
TTM_SCR_TAP	392500
TTM_SCR_BRK	145600
TTM_SCR_HLD	32000
TTM_SCR_SLD	189000
TTM_SCR_ALL	759100
TTM_SCR_S	730900
TTM_SCR_SS	753500
TTM_RAT_ACV	10074

