VERSION	0.00.00	1.03.00
FES_MODE	0
BPM_DEF	188.000	188.000	188.000	188.000
MET_DEF	4	4
RESOLUTION	384
CLK_DEF	384
COMPATIBLE_CODE	MA2

BPM	0	0	188.000
MET	0	0	4	4

TAP	1	288	3
TAP	1	312	4
TAP	1	336	3
TAP	1	360	4
TAP	2	0	2
TAP	2	0	5
TAP	2	96	3
TAP	2	96	6
TAP	2	192	2
TAP	2	192	5
TAP	2	288	1
TAP	2	288	4
HLD	3	0	2	192
HLD	3	0	5	192
TAP	3	240	3
TAP	3	264	4
BRK	3	288	2
BRK	3	288	5
TAP	4	0	1
TAP	4	24	3
TAP	4	48	2
TAP	4	72	3
HLD	4	96	1	48
TAP	4	144	5
HLD	4	192	1	48
TAP	4	240	3
HLD	4	288	1	48
TAP	4	336	6
HLD	5	0	1	48
TAP	5	48	4
TAP	5	96	1
TAP	5	144	7
TAP	5	192	1
TAP	5	240	1
TAP	5	240	7
TAP	5	288	2
TAP	5	288	6
TAP	5	336	3
TAP	5	336	5
TAP	6	0	6
TAP	6	24	4
TAP	6	48	5
TAP	6	72	4
HLD	6	96	6	48
TAP	6	144	2
HLD	6	192	6	48
TAP	6	240	4
HLD	6	288	6	48
TAP	6	336	1
HLD	7	0	6	48
TAP	7	48	3
TAP	7	96	6
HLD	7	144	1	144
XTP	7	240	0
XTP	7	288	0
TAP	8	0	6
TAP	8	24	4
TAP	8	48	5
TAP	8	72	4
HLD	8	96	6	48
TAP	8	144	2
HLD	8	192	6	48
TAP	8	240	4
HLD	8	288	6	48
TAP	8	336	1
HLD	9	0	6	48
TAP	9	48	3
TAP	9	96	6
TAP	9	144	0
TAP	9	192	6
TAP	9	240	0
TAP	9	240	6
TAP	9	288	1
TAP	9	288	5
TAP	9	336	2
TAP	9	336	4
TAP	10	0	1
TAP	10	24	3
TAP	10	48	2
TAP	10	72	3
HLD	10	96	1	48
TAP	10	144	5
HLD	10	192	1	48
TAP	10	240	3
HLD	10	288	1	48
TAP	10	336	7
TAP	11	0	0
TAP	11	0	6
TAP	11	48	1
STR	11	48	5
SCR	11	48	5	96	144	3
TTP	11	144	0	C	1	M1
XTP	11	288	0
XTP	11	336	0
TAP	12	0	1
TAP	12	0	7
TAP	12	96	0
TAP	12	96	6
TAP	12	192	3
TAP	12	192	4
TAP	12	240	2
TAP	12	240	5
STR	12	336	0
SI_	12	336	0	96	48	3
STR	12	336	7
SI_	12	336	7	96	48	4
XTP	13	48	0
XTP	13	48	7
BRK	13	144	1
BRK	13	144	6
TAP	14	0	2
TAP	14	0	5
TAP	14	48	2
HLD	14	48	5	240
TAP	14	192	4
TAP	14	288	4
HLD	15	0	3	96
HLD	15	0	6	96
HLD	15	144	1	144
HLD	15	144	4	144
TAP	16	0	0
TAP	16	0	6
TAP	16	96	4
STR	16	96	5
SCR	16	96	5	96	96	0
STR	16	192	0
SCL	16	192	0	96	96	5
TAP	16	288	2
TAP	17	0	2
TAP	17	48	1
STR	17	96	0
SSL	17	96	0	96	144	4
HLD	17	96	6	192
TAP	18	0	2
TAP	18	0	5
HLD	18	48	2	240
TAP	18	48	5
TAP	18	192	3
TAP	18	288	3
HLD	19	0	1	96
HLD	19	0	4	96
HLD	19	144	3	144
HLD	19	144	6	144
STR	20	0	0
SSL	20	0	0	96	144	4
HLD	20	0	7	288
TAP	21	0	3
TAP	21	0	4
BRK	21	192	7
BRK	21	288	0
TAP	22	0	1
TAP	22	0	3
TAP	22	48	2
TAP	22	96	3
TAP	22	96	4
TAP	22	192	4
TAP	22	192	6
TAP	22	240	5
TAP	22	288	3
TAP	22	288	4
TAP	23	0	1
TAP	23	0	3
TAP	23	48	2
TAP	23	96	3
TAP	23	96	4
XTP	23	192	6
XTP	23	216	4
XTP	23	240	5
XTP	23	264	3
XTP	23	288	4
TAP	24	0	1
TAP	24	0	5
STR	24	96	7
SUL	24	96	7	96	96	1
STR	24	192	1
SUR	24	192	1	96	96	7
TAP	25	0	0
TAP	25	48	0
STR	25	96	0
SSL	25	96	0	96	144	4
HLD	25	96	7	192
TAP	26	0	6
TAP	26	48	5
TAP	26	96	3
TAP	26	96	4
TAP	26	192	1
TAP	26	192	3
TAP	26	240	2
TAP	26	288	3
TAP	26	288	4
TAP	27	0	4
TAP	27	0	6
TAP	27	48	5
TAP	27	96	3
TAP	27	96	4
TAP	27	192	1
TAP	27	192	3
TAP	27	240	0
TAP	27	288	1
TAP	27	288	7
TAP	27	336	2
TAP	27	336	6
TAP	28	0	3
TAP	28	0	5
STR	28	96	0
SUR	28	96	0	96	96	6
STR	28	192	6
SUL	28	192	6	96	96	0
TAP	29	0	7
TAP	29	48	7
STR	29	96	0
SSL	29	96	0	96	144	4
HLD	29	96	7	192
TTP	30	0	7	E	0	M1
TTP	30	64	0	E	0	M1
TTP	30	128	1	E	0	M1
TTP	30	192	5	E	0	M1
TTP	30	256	4	E	0	M1
TTP	30	320	3	E	0	M1
TTP	31	0	1	E	0	M1
TTP	31	0	7	E	0	M1
TTP	31	64	2	E	0	M1
TTP	31	64	6	E	0	M1
TTP	31	128	3	E	0	M1
TTP	31	128	5	E	0	M1
THO	31	192	0	128	C	0	M1
TTP	32	0	7	E	0	M1
TTP	32	64	6	E	0	M1
TTP	32	128	5	E	0	M1
TTP	32	192	1	E	0	M1
TTP	32	256	2	E	0	M1
TTP	32	320	3	E	0	M1
TTP	33	0	1	B	0	M1
TTP	33	0	6	B	0	M1
TTP	33	64	2	B	0	M1
TTP	33	64	5	B	0	M1
TTP	33	128	3	E	0	M1
TTP	33	128	5	E	0	M1
THO	33	192	0	128	C	0	M1
TTP	34	0	1	E	0	M1
TTP	34	64	0	E	0	M1
TTP	34	128	7	E	0	M1
TTP	34	192	3	E	0	M1
TTP	34	256	4	E	0	M1
TTP	34	320	5	E	0	M1
TTP	35	0	0	B	0	M1
TTP	35	0	0	E	0	M1
TTP	35	64	6	B	0	M1
TTP	35	64	6	E	0	M1
TTP	35	128	2	B	0	M1
TTP	35	128	2	E	0	M1
THO	35	192	0	96	C	1	M1
BRK	35	288	0
HLD	36	0	0	48
HLD	36	0	7	48
HLD	36	96	1	48
HLD	36	96	6	48
TAP	36	192	2
TAP	36	216	3
TAP	36	240	2
TAP	36	264	3
TAP	36	288	2
TAP	36	336	1
TAP	36	336	4
TAP	37	48	7
TAP	37	96	5
TAP	37	144	0
TAP	37	192	2
TAP	37	240	4
TAP	37	288	6
TAP	37	336	3
STR	38	0	1
SCR	38	0	1	96	96	5
TAP	38	96	4
STR	38	144	6
SCL	38	144	6	96	96	2
TAP	38	240	1
TAP	38	288	0
TAP	39	48	0
TAP	39	48	7
TAP	39	96	0
TAP	39	96	7
TAP	39	144	0
TAP	39	144	7
BRK	39	192	1
BRK	39	192	6
STR	40	0	1
SI_	40	0	1	96	48	5
TAP	40	0	7
TAP	40	96	4
STR	40	192	6
SCR	40	192	6	96	48	1
TAP	40	240	2
TAP	40	288	3
STR	40	336	4
SSL	40	336	4	96	96	0
XTP	41	48	7
XTP	41	96	7
STR	41	192	6
SI_	41	192	6	96	48	2
STR	41	240	0
SI_	41	240	0	96	48	4
TAP	41	288	6
TAP	41	336	0
TAP	42	96	1
TAP	42	96	5
TAP	42	192	4
HLD	42	192	6	96
TAP	42	288	0
STR	42	336	1
SI_	42	336	1	96	48	7
SV_	42	336	1	96	48	3
TAP	42	336	7
XTP	43	48	1
STR	43	144	6
SI_	43	144	6	96	48	0
SV_	43	144	6	96	48	4
XTP	43	240	6
TAP	43	336	7
TAP	44	0	0
STR	44	0	6
SI_	44	0	6	96	48	2
TAP	44	96	3
STR	44	192	1
SCL	44	192	1	96	48	6
TAP	44	240	5
TAP	44	288	4
STR	44	336	3
SSR	44	336	3	96	96	7
XTP	45	48	0
XTP	45	96	0
STR	45	192	1
SI_	45	192	1	96	48	5
STR	45	240	7
SI_	45	240	7	96	48	3
TAP	45	288	1
TAP	45	336	7
TAP	46	96	2
TAP	46	96	6
TAP	46	192	1
TAP	46	192	3
TAP	46	288	0
TAP	46	288	7
TAP	46	336	1
TAP	46	336	6
TTP	47	48	2	B	0	M1
TTP	47	48	2	E	0	M1
TTP	47	96	4	B	0	M1
TTP	47	96	4	E	0	M1
TTP	47	144	6	B	0	M1
TTP	47	144	6	E	0	M1
TTP	47	192	0	C	1	M1
TAP	47	336	0
TAP	47	336	7
TAP	48	48	0
STR	48	96	7
SCL	48	96	7	96	48	4
STR	48	144	0
SUL	48	144	0	96	48	3
STR	48	336	5
SXL	48	336	5	96	48	7
STR	49	48	3
SCL	49	48	3	96	48	0
STR	49	144	5
SI_	49	144	5	96	48	1
XST	49	240	7
SCR	49	240	7	96	144	5
TTP	49	336	0	C	1	M1
TAP	50	96	0
XTP	50	192	7
XTP	50	240	7
TAP	50	336	1
STR	50	336	5
SLL	50	336	5	96	96	6
TAP	51	48	0
STR	51	96	0
SI_	51	96	0	96	48	4
BRK	51	192	7
STR	52	0	6
SI_	52	0	6	96	48	3
TAP	52	48	0
TAP	52	144	0
STR	52	192	1
SI_	52	192	1	96	48	4
TAP	52	240	7
TAP	52	336	7
STR	53	0	6
SI_	53	0	6	96	48	2
STR	53	48	2
SI_	53	48	2	96	48	6
XTP	53	240	0
XTP	53	288	0
TAP	54	0	1
HLD	54	0	7	240
TAP	54	96	1
TAP	54	192	1
STR	54	240	1
SCR	54	240	1	96	48	4
TAP	54	336	1
TAP	54	336	7
TAP	55	48	7
STR	55	96	7
SF_	55	96	7	96	48	3
TAP	55	192	7
TAP	55	336	1
TAP	55	336	5
TAP	56	48	7
STR	56	96	0
SCR	56	96	0	96	48	3
STR	56	144	7
SUR	56	144	7	96	48	4
STR	56	336	2
SXR	56	336	2	96	48	0
STR	57	48	4
SCR	57	48	4	96	48	7
STR	57	144	2
SI_	57	144	2	96	48	6
XST	57	240	0
SCL	57	240	0	96	144	2
TTP	57	336	0	C	1	M1
TAP	58	96	7
XTP	58	192	0
XTP	58	240	0
STR	58	336	2
SLL	58	336	2	96	144	4
TAP	58	336	6
TAP	59	48	5
STR	59	96	4
SCL	59	96	4	96	96	1
SCR	59	96	4	96	96	7
TAP	60	0	0
TAP	60	0	6
HLD	60	48	0	96
HLD	60	48	6	96
TAP	60	192	2
TAP	60	192	7
HLD	60	240	2	48
HLD	60	240	7	48
TAP	60	336	1
TAP	60	336	5
TAP	61	48	3
TAP	61	48	7
STR	61	96	2
SI_	61	96	2	96	48	7
STR	61	96	6
SI_	61	96	6	96	48	3
TAP	61	192	2
TAP	61	192	6
XTP	61	288	0
XTP	61	288	4
TAP	62	0	1
TAP	62	0	7
HLD	62	48	1	96
HLD	62	48	7	96
TAP	62	192	0
TAP	62	192	5
HLD	62	240	0	48
HLD	62	240	5	48
TAP	62	336	2
TAP	62	336	6
TAP	63	48	0
TAP	63	48	4
STR	63	96	1
SI_	63	96	1	96	48	4
STR	63	96	5
SI_	63	96	5	96	48	0
TAP	63	192	1
TAP	63	192	5
BRK	63	288	2
BRK	63	288	6
TAP	64	0	1
TAP	64	24	3
TAP	64	48	2
TAP	64	72	3
HLD	64	96	1	48
TAP	64	144	5
HLD	64	192	1	48
TAP	64	240	3
HLD	64	288	1	48
TAP	64	336	6
HLD	65	0	1	48
TAP	65	48	4
TAP	65	96	1
TAP	65	144	7
TAP	65	192	1
TAP	65	240	1
TAP	65	240	7
TAP	65	288	2
TAP	65	288	6
TAP	65	336	3
TAP	65	336	5
TAP	66	0	6
TAP	66	24	4
TAP	66	48	5
TAP	66	72	4
HLD	66	96	6	48
TAP	66	144	2
HLD	66	192	6	48
TAP	66	240	4
HLD	66	288	6	48
STR	66	336	1
SI_	66	336	1	96	48	7
SV_	66	336	1	96	48	3
STR	67	144	1
SI_	67	144	1	96	48	3
SV_	67	144	1	96	48	7
TAP	67	336	1
TAP	68	0	1
TAP	68	24	3
TAP	68	48	2
TAP	68	72	3
HLD	68	96	1	48
TAP	68	144	5
HLD	68	192	1	48
TAP	68	240	3
HLD	68	288	1	48
TAP	68	336	6
HLD	69	0	1	48
TAP	69	48	4
TAP	69	96	1
TAP	69	144	7
TAP	69	192	1
TAP	69	240	1
TAP	69	240	7
TAP	69	288	2
TAP	69	288	6
TAP	69	336	3
TAP	69	336	5
TAP	70	0	6
TAP	70	24	4
TAP	70	48	5
TAP	70	72	4
HLD	70	96	6	48
TAP	70	144	2
HLD	70	192	6	48
TAP	70	240	4
HLD	70	288	6	48
TAP	70	336	1
TAP	71	0	0
TAP	71	0	7
TAP	71	48	0
TAP	71	48	7
TAP	71	96	0
TAP	71	96	7
TAP	71	144	1
TAP	71	144	6
TAP	72	0	3
STR	72	0	4
SCR	72	0	4	96	480	1
TAP	72	96	3
TAP	72	192	3
TAP	72	288	3
TAP	73	0	3
TAP	73	96	3
TAP	73	192	3
TAP	73	288	3
STR	74	0	3
SCL	74	0	3	96	456	6
TAP	74	0	4
TAP	74	96	4
TAP	74	192	4
TAP	74	288	4
TAP	75	0	4
TAP	75	96	4
TAP	75	192	4
TAP	75	288	4
TAP	76	0	3
STR	76	0	4
SCR	76	0	4	96	192	7
TAP	76	96	3
TAP	76	192	3
TAP	76	288	3
TAP	77	0	3
STR	77	0	7
SCL	77	0	7	96	192	4
TAP	77	96	3
TAP	77	192	3
TAP	77	288	3
XTP	78	0	2
XTP	78	0	5
HLD	78	192	0	96
HLD	78	192	7	96
TAP	78	336	1
TAP	78	336	6
TTP	79	48	1	B	0	M1
TTP	79	48	2	E	0	M1
TTP	79	96	3	B	0	M1
TTP	79	96	3	E	0	M1
TAP	79	192	0
TAP	79	192	7
TAP	79	240	0
TAP	79	240	7
TAP	79	288	0
TAP	79	288	7
BRK	79	336	1
BRK	79	336	6
TAP	80	48	7
STR	80	96	3
SCL	80	96	3	96	48	0
STR	80	144	7
SUR	80	144	7	96	48	4
STR	80	336	0
SXL	80	336	0	96	48	2
STR	81	48	4
SCR	81	48	4	96	48	7
STR	81	144	1
SI_	81	144	1	96	48	5
XST	81	240	0
SCL	81	240	0	96	144	2
TTP	81	336	0	C	1	M1
TAP	82	96	7
XTP	82	192	0
XTP	82	240	0
STR	82	336	2
SLR	82	336	2	96	96	1
TAP	82	336	6
TAP	83	48	7
STR	83	96	7
SI_	83	96	7	96	48	3
BRK	83	192	0
STR	84	0	1
SI_	84	0	1	96	48	4
TAP	84	48	7
TAP	84	144	7
STR	84	192	6
SI_	84	192	6	96	48	3
TAP	84	240	0
TAP	84	336	0
STR	85	0	1
SI_	85	0	1	96	48	5
STR	85	48	5
SI_	85	48	5	96	48	1
XTP	85	240	7
XTP	85	288	7
TAP	86	0	2
HLD	86	0	7	240
TAP	86	96	2
TAP	86	192	2
STR	86	240	2
SCR	86	240	2	96	48	5
TAP	86	336	2
TAP	86	336	7
TAP	87	48	7
STR	87	96	7
SF_	87	96	7	96	48	3
TAP	87	192	7
TAP	87	336	1
HLD	87	336	5	96
TAP	88	48	0
STR	88	96	4
SCR	88	96	4	96	48	7
STR	88	144	0
SUL	88	144	0	96	48	1
STR	88	336	0
SV_	88	336	0	96	48	5
STR	88	336	7
SCL	88	336	7	96	48	5
STR	89	48	0
SCR	89	48	0	96	48	2
STR	89	48	7
SV_	89	48	7	96	48	2
STR	89	144	0
SI_	89	144	0	96	48	3
STR	89	144	7
SI_	89	144	7	96	48	4
STR	89	240	0
SXL	89	240	0	96	288	3
STR	89	240	7
SXR	89	240	7	96	288	4
BRK	89	336	0
BRK	89	336	7
TAP	90	336	1
STR	90	336	5
SLR	90	336	5	96	144	3
TAP	91	48	2
STR	91	96	3
SXL	91	96	3	96	96	3
SXR	91	96	3	96	96	3
TAP	92	0	0
TAP	92	0	1
HLD	92	48	0	96
HLD	92	48	1	96
TAP	92	192	5
TAP	92	192	7
HLD	92	240	5	48
HLD	92	240	7	48
TAP	92	336	2
TAP	92	336	6
TAP	93	48	0
TAP	93	48	4
STR	93	96	1
SCR	93	96	1	96	48	4
STR	93	96	5
SCR	93	96	5	96	48	0
TAP	93	192	1
TAP	93	192	5
XTP	93	288	3
XTP	93	288	7
TAP	94	0	6
TAP	94	0	7
HLD	94	48	6	96
HLD	94	48	7	96
TAP	94	192	0
TAP	94	192	2
HLD	94	240	0	48
HLD	94	240	2	48
TAP	94	336	1
TAP	94	336	5
TAP	95	48	3
TAP	95	48	7
STR	95	96	2
SCL	95	96	2	96	48	7
STR	95	96	6
SCL	95	96	6	96	48	3
TAP	95	192	2
TAP	95	192	6
XTP	95	288	0
XTP	95	288	4
TAP	96	0	4
TAP	96	0	6
HLD	96	48	4	96
HLD	96	48	6	96
TAP	96	192	0
TAP	96	192	5
HLD	96	240	0	48
HLD	96	240	5	48
TAP	96	336	2
TAP	96	336	6
TAP	97	48	0
TAP	97	48	4
STR	97	96	1
SCR	97	96	1	96	48	4
STR	97	96	5
SCR	97	96	5	96	48	0
TAP	97	192	1
TAP	97	192	5
XTP	97	288	3
XTP	97	288	7
TAP	98	0	1
TAP	98	0	3
HLD	98	48	1	96
HLD	98	48	3	96
TAP	98	192	2
TAP	98	192	7
HLD	98	240	2	48
HLD	98	240	7	48
TAP	98	336	1
TAP	98	336	5
TAP	99	48	3
TAP	99	48	7
STR	99	96	2
SCL	99	96	2	96	48	7
STR	99	96	6
SCL	99	96	6	96	48	3
TAP	99	192	2
TAP	99	192	6
TAP	99	288	0
TAP	99	288	4
TAP	99	336	1
TAP	99	336	5
TAP	100	48	3
TAP	100	48	7
STR	100	96	1
SI_	100	96	1	96	48	4
STR	100	96	5
SI_	100	96	5	96	48	0
TAP	100	192	1
TAP	100	192	5
TAP	100	288	3
TAP	100	288	7
TAP	100	336	2
TAP	100	336	6
TAP	101	48	0
TAP	101	48	4
STR	101	96	2
SI_	101	96	2	96	48	5
STR	101	96	6
SI_	101	96	6	96	48	1
TAP	101	192	2
TAP	101	192	6
BRK	101	288	3
BRK	101	288	7
TAP	102	0	1
TAP	102	24	3
TAP	102	48	2
TAP	102	72	3
HLD	102	96	1	48
TAP	102	144	5
HLD	102	192	1	48
TAP	102	240	3
HLD	102	288	1	48
TAP	102	336	6
HLD	103	0	1	48
TAP	103	48	4
TAP	103	96	1
TAP	103	144	7
TAP	103	192	1
TAP	103	240	1
TAP	103	240	7
TAP	103	288	2
TAP	103	288	6
TAP	103	336	3
TAP	103	336	5
TAP	104	0	6
TAP	104	24	4
TAP	104	48	5
TAP	104	72	4
HLD	104	96	6	48
TAP	104	144	2
HLD	104	192	6	48
TAP	104	240	4
HLD	104	288	6	48
STR	104	336	1
SI_	104	336	1	96	48	7
SV_	104	336	1	96	48	3
STR	105	144	6
SI_	105	144	6	96	48	4
SV_	105	144	6	96	48	0
TAP	105	336	6
TAP	106	0	6
TAP	106	24	4
TAP	106	48	5
TAP	106	72	4
HLD	106	96	6	48
TAP	106	144	2
HLD	106	192	6	48
TAP	106	240	4
HLD	106	288	6	48
TAP	106	336	1
HLD	107	0	6	48
TAP	107	48	3
TAP	107	96	6
TAP	107	144	1
TAP	107	192	6
TAP	107	240	0
TAP	107	240	6
TAP	107	288	1
TAP	107	288	5
TAP	107	336	2
TAP	107	336	4
TAP	108	0	1
TAP	108	24	3
TAP	108	48	2
TAP	108	72	3
HLD	108	96	1	48
TAP	108	144	5
HLD	108	192	1	48
TAP	108	240	3
HLD	108	288	1	48
TAP	108	336	0
TAP	109	0	1
TAP	109	0	7
STR	109	48	2
SCL	109	48	2	96	144	4
TAP	109	48	6
TTP	109	144	0	C	1	M1
XTP	109	288	7
XTP	109	336	7
STR	110	0	1
SI_	110	0	1	96	48	4
STR	110	0	5
SI_	110	0	5	96	48	0
TAP	110	96	1
TAP	110	96	5
TAP	110	192	3
TAP	110	192	7
STR	110	240	2
SI_	110	240	2	96	48	7
STR	110	240	6
SI_	110	240	6	96	48	3
TAP	110	336	2
TAP	110	336	6
STR	111	48	0
SI_	111	48	0	96	48	3
STR	111	48	4
SI_	111	48	4	96	48	7
BRK	111	144	0
BRK	111	144	4

T_REC_TAP	449
T_REC_BRK	21
T_REC_XTP	39
T_REC_HLD	94
T_REC_XHO	0
T_REC_STR	103
T_REC_BST	0
T_REC_XST	3
T_REC_TTP	52
T_REC_THO	3
T_REC_SLD	114
T_REC_ALL	878
T_NUM_TAP	646
T_NUM_BRK	21
T_NUM_HLD	97
T_NUM_SLD	114
T_NUM_ALL	878
T_JUDGE_TAP	667
T_JUDGE_HLD	168
T_JUDGE_SLD	114
T_JUDGE_ALL	949
TTM_EACHPAIRS	184
TTM_SCR_TAP	323000
TTM_SCR_BRK	54600
TTM_SCR_HLD	97000
TTM_SCR_SLD	171000
TTM_SCR_ALL	645600
TTM_SCR_S	624200
TTM_SCR_SS	643500
TTM_RAT_ACV	10032

