VERSION	0.00.00	1.03.00
FES_MODE	0
BPM_DEF	188.000	188.000	188.000	188.000
MET_DEF	4	4
RESOLUTION	384
CLK_DEF	384
COMPATIBLE_CODE	MA2

BPM	0	0	188.000
MET	0	0	4	4

TTP	2	0	4	B	0	M1
TTP	2	0	5	E	0	M1
TTP	2	96	3	B	0	M1
TTP	2	96	3	E	0	M1
TTP	2	192	7	B	0	M1
TTP	2	192	7	E	0	M1
TTP	2	288	0	B	0	M1
TTP	2	288	1	E	0	M1
THO	3	0	0	288	C	1	M1
TAP	4	0	0
TAP	4	0	7
TAP	4	96	1
TAP	4	144	1
TAP	4	240	2
TAP	4	240	4
HLD	4	336	5	96
HLD	5	48	6	96
HLD	5	144	7	96
TAP	5	240	0
TAP	5	288	0
TAP	6	0	3
TAP	6	0	6
TAP	6	96	5
TAP	6	144	5
TAP	6	240	2
TAP	6	240	4
HLD	6	336	1	96
HLD	7	48	0	96
HLD	7	144	7	96
TAP	7	240	6
BRK	7	288	6
TAP	8	0	0
TAP	8	0	5
TAP	8	96	1
TAP	8	144	1
TAP	8	240	2
TAP	8	240	4
HLD	8	336	5	96
HLD	9	48	6	96
HLD	9	144	7	96
TAP	9	240	0
TAP	9	288	0
TAP	10	0	2
TAP	10	0	4
TAP	10	96	6
TAP	10	144	6
TAP	10	240	1
TAP	10	240	7
TAP	10	336	0
TAP	10	336	6
TAP	11	48	3
TAP	11	48	5
BRK	11	144	1
BRK	11	144	7
TAP	11	240	0
TAP	11	288	0
TAP	12	0	1
TAP	12	0	6
TAP	12	96	2
TAP	12	96	5
TAP	12	192	3
TAP	12	192	4
TAP	12	240	3
TAP	12	240	4
TAP	12	336	4
TAP	12	336	6
TAP	13	48	1
TAP	13	48	3
BRK	13	144	0
BRK	13	144	7
TAP	13	240	1
TAP	13	288	1
HLD	14	0	2	672
TAP	14	0	4
TAP	14	192	3
TAP	14	288	3
TAP	15	0	3
TAP	15	96	3
TAP	15	192	4
TAP	15	288	5
STR	16	0	6
SUL	16	0	6	96	168	1
STR	17	0	2
SCR	17	0	2	96	96	5
TAP	17	288	4
TAP	17	288	6
TAP	18	0	3
HLD	18	0	5	672
TAP	18	192	4
TAP	18	288	4
TAP	19	0	4
TAP	19	96	4
TAP	19	192	3
TAP	19	288	2
STR	20	0	1
SSR	20	0	1	96	288	5
STR	20	0	6
SSL	20	0	6	96	288	2
BRK	21	288	1
BRK	21	288	6
TAP	22	0	0
TAP	22	96	1
TAP	22	96	7
TAP	22	192	6
TAP	22	240	6
TAP	22	288	0
TAP	22	288	5
TAP	23	0	1
TAP	23	96	2
TAP	23	96	7
TAP	23	192	6
TAP	23	240	6
TAP	23	288	0
TAP	23	288	5
STR	24	0	1
SUR	24	0	1	96	168	6
TAP	24	0	6
STR	25	0	5
SV_	25	0	5	96	96	2
BRK	25	288	2
BRK	25	288	3
TAP	26	0	4
TAP	26	96	3
TAP	26	96	5
TAP	26	192	2
TAP	26	240	2
TAP	26	288	1
TAP	26	288	4
TAP	27	0	5
TAP	27	96	3
TAP	27	96	6
TAP	27	192	2
TAP	27	240	2
TAP	27	288	1
TAP	27	288	4
TAP	28	0	3
STR	28	0	6
SUL	28	0	6	96	168	1
STR	29	0	2
SV_	29	0	2	96	96	5
BRK	29	288	3
BRK	29	288	5
XHO	30	0	5	128
XTP	30	128	4
XHO	30	192	4	128
XTP	30	320	3
XHO	31	0	3	128
XTP	31	128	2
BRK	31	192	2
XHO	32	0	1	128
XTP	32	128	3
XHO	32	192	3	128
XTP	32	320	4
XHO	33	0	4	128
XTP	33	128	6
BRK	33	192	6
TAP	34	0	1
TAP	34	64	1
TAP	34	128	1
TAP	34	192	6
TAP	34	256	6
TAP	34	320	6
TAP	35	0	0
TAP	35	0	7
TAP	35	64	0
TAP	35	64	7
TAP	35	128	0
TAP	35	128	7
STR	35	192	1
SI_	35	192	1	96	48	3
STR	35	192	6
SI_	35	192	6	96	48	4
TAP	36	0	2
TAP	36	96	1
TAP	36	96	3
TAP	36	192	5
TAP	36	288	4
TAP	36	288	6
TAP	37	0	2
TAP	37	96	0
TAP	37	96	3
TAP	37	192	5
TAP	37	288	4
TAP	37	288	7
STR	38	0	0
SI_	38	0	0	96	48	3
TAP	38	96	7
STR	38	144	7
SI_	38	144	7	96	48	4
TAP	38	240	0
BRK	38	288	0
XTP	39	48	7
XTP	39	96	7
XTP	39	144	1
XTP	39	192	7
TAP	40	0	3
TAP	40	0	4
STR	40	96	6
SCL	40	96	6	96	96	3
STR	40	96	7
SUL	40	96	7	96	96	2
TAP	41	0	1
TAP	41	48	1
TAP	41	96	0
TAP	41	96	2
TAP	41	192	0
HLD	41	192	6	96
TAP	41	288	0
TAP	42	96	3
TAP	42	96	5
STR	42	192	2
SI_	42	192	2	96	48	7
TAP	42	192	4
TAP	42	288	3
TAP	42	336	3
XTP	43	48	0
XTP	43	48	6
XTP	43	144	1
XTP	43	144	7
BRK	43	240	2
BRK	43	240	5
BRK	43	288	2
BRK	43	288	5
TAP	44	0	3
TAP	44	0	4
STR	44	96	0
SUR	44	96	0	96	96	5
STR	44	96	1
SCR	44	96	1	96	96	4
TAP	45	0	6
TAP	45	48	6
TAP	45	96	5
TAP	45	96	7
HLD	45	192	1	96
TAP	45	192	7
TAP	45	288	7
TAP	46	96	2
TAP	46	96	4
TAP	46	192	3
STR	46	192	5
SI_	46	192	5	96	48	0
TAP	46	288	4
TAP	46	336	4
BRK	47	48	0
BRK	47	48	7
BRK	47	96	0
BRK	47	96	7
BRK	47	192	1
BRK	47	192	6
TAP	47	288	2
HLD	47	336	2	96
TAP	48	48	7
TAP	48	96	7
TAP	48	192	0
TAP	48	192	1
TAP	48	240	0
STR	48	240	1
SI_	48	240	1	96	48	3
STR	48	336	7
SI_	48	336	7	96	48	5
STR	49	48	1
SI_	49	48	1	96	48	3
STR	49	144	7
SI_	49	144	7	96	48	5
STR	49	240	1
SCR	49	240	1	96	168	6
TAP	49	336	7
TAP	50	192	0
TAP	50	192	7
TAP	50	240	0
TAP	50	240	7
HLD	50	336	1	144
TAP	51	48	3
TAP	51	96	3
BRK	51	192	0
BRK	51	192	4
TAP	51	288	2
TAP	51	288	6
TAP	52	0	5
TAP	52	48	4
TAP	52	96	6
TAP	52	144	6
TAP	52	192	2
TAP	52	240	3
STR	52	288	1
SUL	52	288	1	96	168	2
TAP	52	336	1
TAP	53	240	7
TAP	53	288	7
TAP	54	0	3
TAP	54	0	4
STR	54	96	1
SUR	54	96	1	96	96	6
TAP	54	144	1
TAP	54	336	0
TAP	54	336	7
TAP	55	48	3
TAP	55	48	4
TAP	55	96	3
TAP	55	96	4
BRK	55	192	1
BRK	55	192	6
TAP	55	288	5
HLD	55	336	5	96
TAP	56	48	0
TAP	56	96	0
TAP	56	192	6
TAP	56	192	7
STR	56	240	6
SI_	56	240	6	96	48	4
TAP	56	240	7
STR	56	336	0
SI_	56	336	0	96	48	2
STR	57	48	6
SI_	57	48	6	96	48	4
STR	57	144	0
SI_	57	144	0	96	48	2
STR	57	240	6
SCL	57	240	6	96	168	1
TAP	57	336	0
TAP	58	192	0
TAP	58	192	7
TAP	58	240	0
TAP	58	240	7
HLD	58	336	6	144
TAP	59	48	4
TAP	59	96	4
BRK	59	192	3
BRK	59	192	7
TAP	60	0	0
TAP	60	0	1
TAP	60	48	0
TAP	60	48	1
TAP	60	192	6
TAP	60	192	7
STR	60	240	6
SCL	60	240	6	96	144	1
TAP	60	240	7
BRK	61	192	0
BRK	61	192	7
TAP	62	0	2
TAP	62	0	4
TAP	62	48	2
TAP	62	48	4
TAP	62	192	3
TAP	62	192	5
TAP	62	240	3
STR	62	240	5
SCR	62	240	5	96	144	2
BRK	63	192	1
BRK	63	192	6
TAP	64	0	3
TAP	64	0	4
TAP	64	96	5
TAP	64	144	5
TAP	64	240	0
TAP	64	240	6
HLD	64	336	1	96
HLD	65	48	3	96
HLD	65	144	4	96
TAP	65	240	5
TAP	65	288	5
TAP	66	0	3
TAP	66	0	4
TAP	66	96	1
TAP	66	144	1
TAP	66	240	0
TAP	66	240	7
HLD	66	336	6	96
XTP	67	48	4
XTP	67	144	3
XTP	67	144	4
XTP	67	240	1
XTP	67	240	3
XTP	67	336	0
XTP	67	336	7
XTP	68	0	0
XTP	68	0	7
TAP	68	96	6
TAP	68	144	6
TAP	68	240	0
TAP	68	240	7
HLD	68	336	1	96
HLD	69	48	3	96
HLD	69	144	4	96
TAP	69	240	5
TAP	69	288	5
TAP	70	0	3
TAP	70	0	4
TAP	70	96	1
TAP	70	144	1
TAP	70	240	0
TAP	70	240	6
TAP	70	336	1
TAP	70	336	7
TAP	71	48	3
TAP	71	48	4
BRK	71	144	1
BRK	71	144	6
TTP	72	0	3	E	0	M1
TTP	72	96	2	E	0	M1
TTP	72	192	1	E	0	M1
TTP	72	288	0	E	0	M1
TTP	73	0	7	E	0	M1
TTP	73	96	6	E	0	M1
TTP	73	192	5	E	0	M1
THO	73	288	0	768	C	0	M1
TAP	74	96	7
TAP	74	288	7
TAP	75	96	7
TAP	75	288	7
TTP	76	0	6	E	0	M1
TTP	76	96	4	B	0	M1
TTP	76	192	3	B	0	M1
TTP	76	288	2	E	0	M1
TTP	77	0	1	E	0	M1
TTP	77	96	0	E	0	M1
TTP	77	192	7	E	0	M1
TTP	77	288	0	C	0	M1
HLD	78	0	7	288
HLD	78	192	0	96
TAP	78	336	0
TAP	78	336	7
BRK	79	48	1
BRK	79	48	6
BRK	79	96	1
BRK	79	96	6
XTP	79	192	0
XTP	79	240	0
XTP	79	288	0
HLD	79	336	7	96
TAP	80	48	1
TAP	80	96	1
TAP	80	192	0
TAP	80	192	6
TAP	80	240	0
STR	80	240	6
SI_	80	240	6	96	48	3
STR	80	336	7
SI_	80	336	7	96	48	2
STR	81	48	6
SI_	81	48	6	96	48	3
STR	81	144	7
SI_	81	144	7	96	48	2
STR	81	240	6
SCL	81	240	6	96	168	1
TAP	81	336	0
TAP	82	192	0
TAP	82	192	7
TAP	82	240	0
TAP	82	240	7
HLD	82	336	6	144
TAP	83	48	4
TAP	83	96	4
BRK	83	192	3
BRK	83	192	7
TAP	83	288	1
TAP	83	288	5
TAP	84	0	2
TAP	84	48	3
TAP	84	96	1
TAP	84	144	1
TAP	84	192	5
TAP	84	240	4
STR	84	288	6
SUR	84	288	6	96	168	5
TAP	84	336	6
TAP	85	240	0
TAP	85	288	0
TAP	86	0	3
TAP	86	0	4
STR	86	96	6
SUL	86	96	6	96	96	1
TAP	86	144	6
TAP	86	336	0
TAP	86	336	7
TAP	87	48	3
TAP	87	48	4
TAP	87	96	3
TAP	87	96	4
BRK	87	192	1
BRK	87	192	6
TAP	87	288	7
HLD	87	336	7	96
TAP	88	48	5
TAP	88	96	5
TAP	88	192	2
TAP	88	192	4
STR	88	240	2
SI_	88	240	2	96	48	7
TAP	88	240	4
STR	88	336	3
SI_	88	336	3	96	48	6
STR	89	48	2
SI_	89	48	2	96	48	7
STR	89	144	3
SI_	89	144	3	96	48	6
STR	89	240	2
SCL	89	240	2	96	168	5
TAP	89	336	4
TAP	90	192	3
TAP	90	192	4
TAP	90	240	3
TAP	90	240	4
HLD	90	336	2	144
TAP	91	48	0
TAP	91	96	0
BRK	91	192	3
BRK	91	192	7
TAP	92	0	4
TAP	92	0	5
TAP	92	48	4
TAP	92	48	5
TAP	92	192	2
TAP	92	192	3
STR	92	240	2
SCL	92	240	2	96	144	5
TAP	92	240	3
BRK	93	192	3
BRK	93	192	4
TAP	94	0	6
TAP	94	0	7
TAP	94	48	6
TAP	94	48	7
TAP	94	192	0
TAP	94	192	1
TAP	94	240	0
STR	94	240	1
SCR	94	240	1	96	144	6
BRK	95	192	0
BRK	95	192	7
TAP	96	0	5
TAP	96	0	7
TAP	96	48	5
TAP	96	48	7
TAP	96	192	0
TAP	96	192	2
STR	96	240	0
SUL	96	240	0	96	144	7
TAP	96	240	2
BRK	97	192	1
BRK	97	192	6
TAP	98	0	5
TAP	98	0	6
TAP	98	48	5
TAP	98	48	6
TAP	98	192	1
TAP	98	192	2
STR	98	240	1
SCR	98	240	1	96	144	6
TAP	98	240	2
BRK	99	192	0
BRK	99	192	7
HLD	99	336	2	144
TAP	100	48	4
TAP	100	96	4
BRK	100	192	0
BRK	100	192	6
HLD	100	336	5	144
TAP	101	48	3
TAP	101	96	3
BRK	101	192	1
BRK	101	192	7
TAP	102	0	3
TAP	102	0	4
TAP	102	96	2
TAP	102	144	2
TAP	102	240	1
TAP	102	240	7
HLD	102	336	6	96
HLD	103	48	4	96
HLD	103	144	3	96
TAP	103	240	2
TAP	103	288	2
TAP	104	0	3
TAP	104	0	4
TAP	104	96	6
TAP	104	144	6
TAP	104	240	0
TAP	104	240	7
HLD	104	336	1	96
XTP	105	48	3
XTP	105	144	3
XTP	105	144	4
XTP	105	240	4
XTP	105	240	6
XTP	105	336	0
XTP	105	336	7
XTP	106	0	0
XTP	106	0	7
TAP	106	96	1
TAP	106	144	1
TAP	106	240	0
TAP	106	240	7
HLD	106	336	6	96
HLD	107	48	4	96
HLD	107	144	3	96
TAP	107	240	2
TAP	107	288	2
TAP	108	0	3
TAP	108	0	4
TAP	108	96	6
TAP	108	144	6
TAP	108	240	1
TAP	108	240	7
TAP	108	336	0
TAP	108	336	6
TAP	109	48	3
TAP	109	48	4
BRK	109	144	1
BRK	109	144	6
TAP	109	240	0
TAP	109	288	0
TAP	110	0	1
TAP	110	0	3
TAP	110	96	4
TAP	110	96	6
TAP	110	192	2
TAP	110	192	5
TAP	110	240	2
TAP	110	240	5
TAP	110	336	0
TAP	110	336	7
TAP	111	48	3
TAP	111	48	4
BRK	111	144	1
BRK	111	144	6

T_REC_TAP	364
T_REC_BRK	62
T_REC_XTP	35
T_REC_HLD	39
T_REC_XHO	6
T_REC_STR	48
T_REC_BST	0
T_REC_XST	0
T_REC_TTP	23
T_REC_THO	2
T_REC_SLD	48
T_REC_ALL	627
T_NUM_TAP	470
T_NUM_BRK	62
T_NUM_HLD	47
T_NUM_SLD	48
T_NUM_ALL	627
T_JUDGE_TAP	532
T_JUDGE_HLD	152
T_JUDGE_SLD	48
T_JUDGE_ALL	732
TTM_EACHPAIRS	164
TTM_SCR_TAP	235000
TTM_SCR_BRK	161200
TTM_SCR_HLD	47000
TTM_SCR_SLD	72000
TTM_SCR_ALL	515200
TTM_SCR_S	493750
TTM_SCR_SS	509000
TTM_RAT_ACV	10121

