VERSION	0.00.00	1.03.00
FES_MODE	0
BPM_DEF	188.000	188.000	188.000	188.000
MET_DEF	4	4
RESOLUTION	384
CLK_DEF	384
COMPATIBLE_CODE	MA2

BPM	0	0	188.000
MET	0	0	4	4

XTP	2	0	3
XTP	2	96	3
XTP	2	192	4
XTP	2	288	4
XTP	3	0	3
XTP	3	0	4
XTP	3	192	2
XTP	3	192	5
TAP	4	0	2
TAP	4	96	2
TAP	4	192	3
TAP	5	0	5
TAP	5	96	5
TAP	5	192	4
TAP	6	0	2
TAP	6	96	2
TAP	6	192	3
TAP	7	0	3
TAP	7	0	4
TAP	7	192	2
TAP	7	192	5
TAP	8	0	6
TAP	8	96	6
TAP	8	192	7
TAP	9	0	1
TAP	9	96	1
TAP	9	192	0
TAP	10	0	6
TAP	10	96	6
TAP	10	192	7
TAP	11	0	0
TAP	11	96	0
TAP	11	192	7
TAP	11	288	7
STR	12	0	0
SI_	12	0	0	96	288	3
STR	12	0	7
SI_	12	0	7	96	288	4
TAP	13	192	2
TAP	13	192	5
HLD	14	0	5	192
TAP	14	192	4
HLD	15	0	2	192
TAP	15	192	3
HLD	16	0	5	192
TAP	16	192	4
TAP	17	0	3
TAP	17	96	3
TAP	17	192	2
HLD	18	0	1	192
TAP	18	192	0
HLD	19	0	6	192
TAP	19	192	7
STR	20	0	0
SCR	20	0	0	96	288	3
TAP	21	192	3
TAP	21	192	4
TAP	22	0	5
TAP	22	96	5
TAP	22	192	4
TAP	22	192	5
TAP	23	0	2
TAP	23	96	2
TAP	23	192	2
TAP	23	192	3
TAP	24	0	1
TAP	24	96	1
TAP	24	192	0
TAP	24	288	0
TAP	25	0	0
TAP	25	0	7
TAP	25	192	1
TAP	25	192	6
TAP	26	0	6
TAP	26	96	6
TAP	26	192	6
TAP	26	192	7
TAP	27	0	5
TAP	27	96	5
TAP	27	192	4
TAP	27	192	5
TAP	28	0	3
TAP	28	96	3
TAP	28	192	4
TAP	28	288	4
TAP	29	0	3
TAP	29	0	4
TAP	29	192	2
TAP	29	192	5
TTP	30	0	3	E	0	L1
TTP	30	192	2	E	0	L1
TTP	31	0	1	E	0	L1
TTP	31	192	0	E	0	L1
TTP	32	0	7	E	0	L1
TTP	32	192	6	E	0	L1
TTP	33	0	5	E	0	L1
TTP	33	192	4	E	0	L1
TTP	34	0	2	B	0	L1
TTP	34	0	3	E	0	L1
TTP	34	192	5	B	0	L1
TTP	34	192	5	E	0	L1
THO	35	0	0	192	C	0	L1
TTP	36	0	6	E	0	L1
TTP	36	96	5	B	0	L1
TTP	36	192	4	B	0	L1
TTP	37	0	2	E	0	L1
TTP	37	96	2	B	0	L1
TTP	37	192	3	B	0	L1
THO	38	0	0	384	C	1	L1
XTP	40	0	1
TAP	40	96	1
TAP	40	192	2
TAP	40	288	3
TAP	41	0	4
TAP	41	0	5
TAP	41	96	4
TAP	41	96	5
TAP	41	192	3
TAP	41	192	6
TAP	42	0	6
TAP	42	96	6
TAP	42	192	5
TAP	42	288	4
TAP	43	0	2
TAP	43	0	3
TAP	43	96	2
TAP	43	96	3
TAP	43	192	1
TAP	43	192	4
TAP	44	0	2
TAP	44	96	2
TAP	44	192	1
TAP	44	288	0
TAP	45	0	6
TAP	45	0	7
TAP	45	96	6
TAP	45	96	7
TAP	45	192	0
TAP	45	192	5
TAP	46	0	7
TAP	46	96	7
TAP	46	192	0
TAP	46	288	0
TAP	47	0	0
TAP	47	0	7
TAP	47	96	0
TAP	47	96	7
BRK	47	192	1
BRK	47	192	6
XST	48	0	0
SI_	48	0	0	96	192	3
XST	49	0	4
SI_	49	0	4	96	192	7
TAP	50	0	0
TAP	50	96	0
TAP	50	192	1
TAP	50	288	1
TAP	51	0	2
TAP	51	96	2
XTP	51	192	2
XTP	51	192	3
TAP	52	0	5
TAP	52	96	5
TAP	52	192	4
TAP	52	192	6
TAP	53	0	2
TAP	53	96	2
TAP	53	192	1
TAP	53	192	3
HLD	54	0	0	192
HLD	54	0	7	192
TAP	55	0	0
TAP	55	0	7
TAP	55	96	0
TAP	55	96	7
BRK	55	192	1
BRK	55	192	6
XST	56	0	7
SI_	56	0	7	96	192	4
XST	57	0	3
SI_	57	0	3	96	192	0
TAP	58	0	7
TAP	58	96	7
TAP	58	192	6
TAP	58	288	6
TAP	59	0	5
TAP	59	96	5
XTP	59	192	4
XTP	59	192	5
STR	60	0	6
SI_	60	0	6	96	288	3
STR	60	0	7
SI_	60	0	7	96	288	2
TAP	61	192	1
TAP	61	192	4
STR	62	0	0
SI_	62	0	0	96	288	5
STR	62	0	1
SI_	62	0	1	96	288	4
XTP	63	192	3
XTP	63	192	6
TAP	64	0	5
TAP	64	96	5
TAP	64	192	4
TAP	64	288	4
TAP	65	0	3
TAP	65	96	2
TAP	65	192	1
TAP	65	192	4
TAP	66	0	2
TAP	66	96	2
TAP	66	192	3
TAP	66	288	3
TAP	67	0	4
TAP	67	96	5
TAP	67	192	3
TAP	67	192	6
TAP	68	0	6
TAP	68	96	6
TAP	68	192	7
TAP	68	288	7
TAP	69	0	0
TAP	69	96	1
TAP	69	192	2
TAP	69	192	7
TAP	70	0	0
TAP	70	96	0
TAP	70	192	7
TAP	70	288	7
TAP	71	0	0
TAP	71	0	7
XTP	71	96	1
XTP	71	96	6
XTP	71	144	1
XTP	71	144	6
HLD	72	0	1	192
HLD	72	192	2	192
HLD	73	0	3	192
TAP	73	192	4
HLD	74	0	6	192
HLD	74	192	5	192
HLD	75	0	4	192
TAP	75	192	3
HLD	76	0	2	192
HLD	76	0	3	192
HLD	77	0	4	192
HLD	77	0	5	192
THO	78	0	0	192	C	0	L1
BRK	79	0	0
BRK	79	0	7
TAP	79	192	1
TAP	79	192	6
TAP	79	288	1
TAP	79	288	6
XTP	80	0	5
TAP	80	96	4
TAP	80	192	3
TAP	80	288	2
TAP	81	0	2
TAP	81	0	3
TAP	81	96	2
TAP	81	96	3
TAP	81	192	1
TAP	81	192	4
TAP	81	288	1
TAP	81	288	4
TAP	82	0	2
TAP	82	96	3
TAP	82	192	4
TAP	82	288	5
TAP	83	0	4
TAP	83	0	5
TAP	83	96	4
TAP	83	96	5
XTP	83	192	3
XTP	83	192	6
HLD	84	0	6	96
TAP	84	96	7
TAP	84	192	0
TAP	84	192	5
HLD	85	0	1	96
TAP	85	96	0
TAP	85	192	2
TAP	85	192	7
HLD	86	0	0	192
HLD	86	0	7	192
TAP	87	0	0
TAP	87	0	7
TAP	87	96	1
TAP	87	96	6
BRK	87	192	2
BRK	87	192	5
XST	88	0	3
SCL	88	0	3	96	192	0
XST	89	0	7
SCL	89	0	7	96	192	4
TAP	90	0	3
TAP	90	96	3
TAP	90	192	2
TAP	90	288	2
TAP	91	0	0
TAP	91	0	1
TAP	91	96	0
TAP	91	96	1
BRK	91	192	2
BRK	91	192	7
STR	92	0	0
SI_	92	0	0	96	288	5
STR	92	0	1
SI_	92	0	1	96	288	4
XTP	93	192	3
XTP	93	192	6
STR	94	0	6
SI_	94	0	6	96	288	3
STR	94	0	7
SI_	94	0	7	96	288	2
XTP	95	192	1
XTP	95	192	4
STR	96	0	2
SI_	96	0	2	96	288	7
STR	96	0	3
SI_	96	0	3	96	288	6
XTP	97	192	0
XTP	97	192	5
STR	98	0	4
SI_	98	0	4	96	288	1
STR	98	0	5
SI_	98	0	5	96	288	0
XTP	99	192	2
XTP	99	192	7
TAP	100	0	3
TAP	100	96	3
TAP	100	192	4
TAP	100	288	4
TAP	101	0	3
TAP	101	0	4
TAP	101	96	2
TAP	101	96	5
BRK	101	192	1
BRK	101	192	6
HLD	102	0	6	192
TAP	102	192	7
TAP	102	288	7
TAP	103	0	0
TAP	103	96	1
TAP	103	192	2
TAP	103	192	7
HLD	104	0	1	192
TAP	104	192	0
TAP	104	288	0
TAP	105	0	7
TAP	105	96	6
TAP	105	192	0
TAP	105	192	5
HLD	106	0	5	192
TAP	106	192	4
TAP	106	288	4
TAP	106	288	5
TAP	107	0	3
TAP	107	96	2
TAP	107	192	1
TAP	107	192	4
HLD	108	0	2	192
TAP	108	192	3
TAP	108	288	2
TAP	108	288	3
TAP	109	0	4
TAP	109	96	5
TAP	109	192	3
TAP	109	192	6
TAP	110	0	2
TAP	110	0	4
TAP	110	96	2
TAP	110	96	4
TAP	110	192	3
TAP	110	240	3
XTP	110	336	4
XTP	111	48	3
XTP	111	48	5
XTP	111	144	2
XTP	111	144	6

T_REC_TAP	246
T_REC_BRK	12
T_REC_XTP	35
T_REC_HLD	25
T_REC_XHO	0
T_REC_STR	15
T_REC_BST	0
T_REC_XST	6
T_REC_TTP	18
T_REC_THO	3
T_REC_SLD	21
T_REC_ALL	381
T_NUM_TAP	320
T_NUM_BRK	12
T_NUM_HLD	28
T_NUM_SLD	21
T_NUM_ALL	381
T_JUDGE_TAP	332
T_JUDGE_HLD	112
T_JUDGE_SLD	21
T_JUDGE_ALL	465
TTM_EACHPAIRS	87
TTM_SCR_TAP	160000
TTM_SCR_BRK	31200
TTM_SCR_HLD	28000
TTM_SCR_SLD	31500
TTM_SCR_ALL	250700
TTM_SCR_S	242050
TTM_SCR_SS	249500
TTM_RAT_ACV	10048

