VERSION	0.00.00	1.03.00
FES_MODE	0
BPM_DEF	188.000	188.000	188.000	188.000
MET_DEF	4	4
RESOLUTION	384
CLK_DEF	384
COMPATIBLE_CODE	MA2

BPM	0	0	188.000
MET	0	0	4	4

HLD	4	0	0	384
HLD	6	0	0	384
HLD	8	0	7	384
HLD	10	0	7	384
TAP	12	0	0
TAP	12	192	0
XTP	13	0	0
XTP	13	0	7
TAP	14	0	7
TAP	15	0	7
HLD	16	0	6	384
TAP	18	0	5
TAP	19	0	5
HLD	20	0	4	384
TAP	22	0	3
TAP	22	192	3
TAP	23	0	3
HLD	24	0	2	384
TAP	26	0	1
TAP	26	192	1
TAP	27	0	1
HLD	28	0	0	384
TTP	30	0	1	B	0	L1
TTP	31	0	2	B	0	L1
TTP	32	0	3	B	0	L1
TTP	33	0	4	B	0	L1
TTP	34	0	5	B	0	L1
TTP	35	0	6	B	0	L1
TTP	36	0	0	B	0	L1
TTP	36	0	7	B	0	L1
TTP	37	0	1	B	0	L1
TTP	37	0	6	B	0	L1
THO	38	0	0	384	C	1	L1
TAP	40	0	0
TAP	40	192	0
TAP	41	0	1
TAP	41	96	1
TAP	41	192	1
TAP	42	0	2
TAP	42	192	2
TAP	43	0	2
TAP	43	0	3
XTP	43	192	2
XTP	43	192	3
TAP	44	0	4
TAP	44	192	4
TAP	45	0	5
TAP	45	96	5
TAP	45	192	5
TAP	46	0	6
TAP	46	192	6
TAP	47	0	7
TAP	47	96	0
BRK	47	192	7
XST	48	0	0
SI_	48	0	0	96	288	4
TAP	50	0	5
TAP	51	0	6
TAP	52	0	7
TAP	52	192	7
TAP	53	0	0
TAP	53	192	0
TAP	54	0	0
TAP	54	0	7
TAP	54	192	0
TAP	54	192	7
XTP	55	0	1
XTP	55	0	6
XST	56	0	7
SI_	56	0	7	96	288	3
TAP	58	0	2
TAP	59	0	1
HLD	60	0	0	384
HLD	60	0	1	384
HLD	62	0	6	384
HLD	62	0	7	384
TAP	64	0	0
TAP	64	192	0
TAP	65	0	0
TAP	66	0	1
TAP	66	192	1
TAP	67	0	1
TAP	68	0	2
TAP	68	192	2
TAP	69	0	2
TAP	70	0	3
TAP	70	192	3
TAP	71	0	3
TAP	71	0	4
TTP	72	0	5	B	0	L1
TTP	73	0	4	B	0	L1
TTP	74	0	3	B	0	L1
TTP	75	0	2	B	0	L1
TTP	76	0	3	B	0	L1
TTP	76	0	4	B	0	L1
TTP	77	0	2	B	0	L1
TTP	77	0	5	B	0	L1
THO	78	0	0	384	C	1	L1
XTP	80	0	7
TAP	80	96	7
TAP	80	192	7
TAP	81	0	6
TAP	81	96	6
TAP	81	192	6
HLD	82	0	5	192
TAP	83	0	4
TAP	83	0	5
XTP	83	192	4
XTP	83	192	5
TAP	84	0	3
TAP	84	96	3
TAP	84	192	3
TAP	85	0	2
TAP	85	96	2
TAP	85	192	2
TAP	86	0	0
TAP	86	0	1
TAP	86	192	0
TAP	86	192	1
TAP	87	0	7
TAP	87	96	7
BRK	87	192	7
TAP	88	0	0
TAP	88	96	0
TAP	88	192	0
TAP	89	0	1
TAP	89	96	1
TAP	89	192	1
HLD	90	0	2	192
TAP	91	0	2
TAP	91	0	3
XTP	91	192	2
XTP	91	192	3
HLD	92	0	4	192
TAP	93	0	4
TAP	93	96	4
TAP	93	192	3
TAP	93	192	4
HLD	94	0	3	192
TAP	95	0	3
TAP	95	96	3
TAP	95	192	3
TAP	95	192	4
HLD	96	0	4	192
TAP	97	0	4
TAP	97	96	4
XTP	97	192	3
XTP	97	192	5
HLD	98	0	3	192
TAP	99	0	3
TAP	99	96	3
XTP	99	192	2
XTP	99	192	4
TAP	100	0	3
TAP	100	0	5
XTP	100	192	3
XTP	100	192	5
TAP	101	0	4
TAP	101	96	3
BRK	101	192	4
TAP	102	0	3
TAP	102	192	3
TAP	103	0	2
TAP	103	192	2
TAP	104	0	1
TAP	104	192	1
TAP	105	0	0
TAP	105	96	0
TAP	105	192	0
TAP	106	0	7
TAP	106	192	7
TAP	107	0	6
TAP	107	192	6
TAP	108	0	5
TAP	108	192	5
TAP	109	0	4
TAP	109	96	4
TAP	109	192	4
XHO	110	0	3	192
XHO	110	0	5	192
XHO	111	0	2	192
XHO	111	0	4	192

T_REC_TAP	116
T_REC_BRK	3
T_REC_XTP	17
T_REC_HLD	18
T_REC_XHO	4
T_REC_STR	0
T_REC_BST	0
T_REC_XST	2
T_REC_TTP	18
T_REC_THO	2
T_REC_SLD	2
T_REC_ALL	182
T_NUM_TAP	153
T_NUM_BRK	3
T_NUM_HLD	24
T_NUM_SLD	2
T_NUM_ALL	182
T_JUDGE_TAP	156
T_JUDGE_HLD	152
T_JUDGE_SLD	2
T_JUDGE_ALL	310
TTM_EACHPAIRS	23
TTM_SCR_TAP	76500
TTM_SCR_BRK	7800
TTM_SCR_HLD	24000
TTM_SCR_SLD	3000
TTM_SCR_ALL	111300
TTM_SCR_S	107700
TTM_SCR_SS	111000
TTM_RAT_ACV	10027

