VERSION	0.00.00	1.03.00
FES_MODE	0
BPM_DEF	190.000	190.000	190.000	190.000
MET_DEF	4	4
RESOLUTION	384
CLK_DEF	384
COMPATIBLE_CODE	MA2

BPM	0	0	190.000
MET	0	0	4	4

BST	2	0	2
SCR	2	0	2	96	1248	1
BRK	2	0	5
HLD	4	0	4	192
STR	4	288	4
SI_	4	288	4	96	192	7
XTP	5	288	2
XTP	5	288	5
TAP	6	0	3
TAP	6	0	4
TAP	6	96	4
TAP	6	96	6
TAP	6	192	3
TAP	6	192	4
TAP	6	288	1
TAP	6	288	3
XTP	7	0	2
XTP	7	24	3
XTP	7	48	2
XTP	7	72	3
XTP	7	96	2
XTP	7	128	6
XTP	7	160	4
XTP	7	192	5
XTP	7	224	0
XTP	7	288	0
XTP	7	352	0
XTP	8	32	0
XHO	8	96	0	96
XTP	8	96	5
XTP	8	120	4
XTP	8	144	3
XTP	8	168	2
XTP	8	288	6
XTP	8	312	5
XTP	8	336	4
XTP	8	360	3
STR	9	0	1
SSR	9	0	1	96	96	5
XTP	9	96	7
XTP	9	144	7
XST	9	192	6
SI_	9	192	6	96	48	2
BRK	9	288	0
HLD	10	0	1	384
TAP	10	0	3
TAP	10	144	3
TAP	10	240	3
TAP	10	336	3
HLD	11	0	5	384
TAP	11	144	4
TAP	11	240	4
TAP	11	336	4
HLD	12	0	2	384
TAP	12	144	3
TAP	12	240	3
TAP	12	336	3
HLD	13	0	6	336
TAP	13	144	4
TAP	13	240	4
TAP	13	336	4
BRK	14	0	2
TAP	14	0	5
TAP	14	96	4
TAP	14	144	4
TAP	14	192	3
TAP	14	240	5
TAP	14	288	4
TAP	14	336	6
BRK	15	0	1
TAP	15	0	7
TAP	15	96	2
TAP	15	144	0
TAP	15	192	1
TAP	15	240	7
TAP	15	288	0
TAP	15	336	6
BRK	16	0	0
TAP	16	0	5
TAP	16	96	1
TAP	16	96	3
TAP	16	144	2
TAP	16	192	4
TAP	16	192	6
TAP	16	240	5
XTP	16	288	0
XHO	16	288	4	96
HLD	17	0	2	48
HLD	17	48	3	48
HLD	17	96	0	48
HLD	17	144	7	48
HLD	17	192	4	48
TAP	17	240	5
BRK	17	288	1
BRK	17	288	6
TAP	18	0	2
TAP	18	48	1
TAP	18	96	2
TAP	18	144	3
TAP	18	192	2
TAP	18	240	1
STR	18	288	2
SCL	18	288	2	96	96	5
TAP	18	336	4
TAP	19	0	3
TAP	19	48	3
STR	19	96	4
SI_	19	96	4	96	48	7
TAP	19	144	4
STR	19	192	3
SI_	19	192	3	96	48	0
TAP	19	240	3
XTP	19	288	6
TAP	20	0	5
TAP	20	48	6
TAP	20	96	5
TAP	20	144	4
TAP	20	192	5
TAP	20	240	6
STR	20	288	5
SCR	20	288	5	96	96	2
TAP	20	336	3
TAP	21	0	4
TAP	21	48	4
STR	21	96	3
SI_	21	96	3	96	48	0
TAP	21	144	3
STR	21	192	4
SI_	21	192	4	96	48	7
TAP	21	240	4
XTP	21	288	1
TAP	22	0	0
TAP	22	0	7
TAP	22	48	1
TAP	22	48	6
TAP	22	96	2
TAP	22	96	5
TAP	22	144	4
TAP	22	192	2
TAP	22	192	3
TAP	22	240	1
STR	22	288	2
SCL	22	288	2	96	96	5
TAP	22	288	3
TAP	22	336	4
TAP	23	0	3
TAP	23	48	3
STR	23	96	4
SI_	23	96	4	96	48	7
TAP	23	144	4
STR	23	192	3
SI_	23	192	3	96	48	0
TAP	23	240	3
XTP	23	288	6
TAP	24	0	4
TAP	24	0	5
TAP	24	48	6
TAP	24	96	4
TAP	24	96	5
TAP	24	144	3
TAP	24	192	4
TAP	24	192	5
TAP	24	240	6
TAP	24	288	4
STR	24	288	5
SI_	24	288	5	96	48	1
SI_	24	288	5	96	48	7
TAP	24	336	3
XTP	25	0	5
XST	25	96	0
SI_	25	96	0	96	48	4
XTP	25	120	0
XTP	25	144	0
XTP	25	168	0
XTP	25	192	0
BST	25	288	2
SI_	25	288	2	96	48	5
BST	25	288	6
SI_	25	288	6	96	48	1
XTP	26	0	2
XTP	26	0	6
TAP	26	96	4
TAP	26	96	5
TAP	26	144	6
TAP	26	192	4
TAP	26	192	5
STR	26	240	3
SI_	26	240	3	96	48	1
TAP	26	288	3
STR	26	336	4
SI_	26	336	4	96	48	0
TAP	27	0	4
STR	27	48	1
SI_	27	48	1	96	48	6
TAP	27	96	1
TAP	27	144	4
TAP	27	192	4
TAP	27	240	4
TAP	27	288	2
TAP	27	312	3
TAP	27	336	1
TAP	27	360	4
TAP	28	0	2
TAP	28	48	2
TAP	28	96	5
TAP	28	120	4
TAP	28	144	6
TAP	28	168	3
TAP	28	192	5
TAP	28	240	5
TAP	28	288	2
TAP	28	312	3
TAP	28	336	1
TAP	28	360	4
HLD	29	0	2	48
TAP	29	48	6
HLD	29	96	2	48
TAP	29	144	3
HLD	29	192	2	48
TAP	29	240	7
HLD	29	288	2	48
TAP	29	336	3
TAP	30	0	1
TAP	30	0	4
TAP	30	48	2
TAP	30	96	3
TAP	30	96	5
TAP	30	144	6
TAP	30	192	0
TAP	30	192	7
STR	30	240	1
SI_	30	240	1	96	48	5
TAP	30	288	3
TAP	30	336	1
STR	31	0	7
SI_	31	0	7	96	48	3
TAP	31	48	0
TAP	31	96	7
TAP	31	144	0
TAP	31	192	1
TAP	31	192	5
TAP	31	240	2
XTP	31	288	3
XTP	31	288	7
TAP	32	0	1
TAP	32	24	2
TAP	32	48	3
TAP	32	72	4
TAP	32	96	5
TAP	32	120	6
TAP	32	144	7
TAP	32	168	0
TAP	32	192	5
TAP	32	216	4
TAP	32	240	3
TAP	32	264	2
TAP	32	288	1
TAP	32	312	0
TAP	32	336	7
TAP	32	360	6
TAP	33	0	1
STR	33	0	5
SI_	33	0	5	96	48	1
STR	33	96	0
SSL	33	96	0	96	48	4
SV_	33	96	0	96	48	2
TAP	33	96	5
BRK	33	192	0
XTP	33	288	1
XTP	33	288	5
STR	34	0	6
SI_	34	0	6	96	48	1
TAP	34	48	6
STR	34	96	2
SI_	34	96	2	96	48	5
STR	34	192	6
SI_	34	192	6	96	48	1
STR	34	288	2
SI_	34	288	2	96	48	5
STR	35	0	6
SI_	35	0	6	96	48	1
TAP	35	96	3
TAP	35	192	4
TAP	35	192	6
TAP	35	240	5
TAP	35	288	1
TAP	35	288	3
TAP	35	336	2
STR	36	0	7
SI_	36	0	7	96	48	4
TAP	36	48	7
STR	36	96	3
SI_	36	96	3	96	48	0
STR	36	192	7
SI_	36	192	7	96	48	4
STR	36	288	3
SI_	36	288	3	96	48	0
STR	37	0	7
SI_	37	0	7	96	48	4
STR	37	96	3
SI_	37	96	3	96	48	1
SI_	37	96	3	96	48	5
XTP	37	288	0
XTP	37	336	0
STR	38	0	6
SCR	38	0	6	96	48	1
TAP	38	48	6
STR	38	96	2
SCR	38	96	2	96	48	5
STR	38	192	6
SCR	38	192	6	96	48	1
STR	38	288	2
SCR	38	288	2	96	48	5
STR	39	0	6
SCR	39	0	6	96	48	1
TAP	39	96	3
TAP	39	192	4
TAP	39	192	6
TAP	39	240	5
TAP	39	288	1
TAP	39	288	3
TAP	39	336	2
STR	40	0	7
SCL	40	0	7	96	48	4
TAP	40	48	7
STR	40	96	3
SCL	40	96	3	96	48	0
STR	40	192	7
SCL	40	192	7	96	48	4
TAP	40	288	3
TAP	41	0	0
TAP	41	0	7
TAP	41	48	1
TAP	41	48	6
STR	41	96	2
SV_	41	96	2	96	48	0
STR	41	96	5
SV_	41	96	5	96	48	7
TAP	41	144	3
TAP	41	144	4
TAP	41	192	2
TAP	41	192	5
BRK	41	288	1
BRK	41	288	6
TAP	42	0	3
HLD	42	0	4	96
BRK	42	96	0
TAP	42	192	2
STR	42	192	6
SI_	42	192	6	96	48	4
TAP	42	288	3
STR	42	288	6
SI_	42	288	6	96	48	2
TAP	43	0	1
STR	43	0	6
SI_	43	0	6	96	48	4
TAP	43	96	3
TAP	43	96	6
TAP	43	192	1
TAP	43	192	3
TAP	43	240	2
TAP	43	288	4
TAP	43	288	6
TAP	43	336	5
TAP	44	0	2
TAP	44	24	3
TAP	44	48	2
TAP	44	72	3
HLD	44	96	1	48
HLD	44	96	4	48
HLD	44	168	3	48
HLD	44	168	6	48
TAP	44	240	0
TAP	44	240	4
TAP	44	288	2
TAP	44	288	6
TAP	44	336	1
TAP	44	336	3
HLD	45	0	1	48
HLD	45	0	3	48
HLD	45	72	4	48
HLD	45	72	5	48
HLD	45	144	1	48
HLD	45	144	2	48
HLD	45	216	3	48
HLD	45	216	7	48
TAP	45	288	1
TAP	45	288	5
TAP	45	336	1
TAP	45	336	5
TAP	45	360	2
TAP	45	360	6
TAP	46	0	3
STR	46	0	7
SCL	46	0	7	96	192	2
TAP	46	96	2
TAP	46	192	1
TAP	46	288	0
STR	47	0	0
SCR	47	0	0	96	192	5
TAP	47	0	4
TAP	47	96	5
TAP	47	192	6
TAP	47	288	7
TAP	48	0	7
TAP	48	24	0
TAP	48	48	7
TAP	48	72	0
TAP	48	96	6
TAP	48	120	1
TAP	48	144	6
TAP	48	168	1
TAP	48	192	7
TAP	48	204	0
TAP	48	216	1
TAP	48	228	2
TAP	48	240	3
TAP	48	252	4
TAP	48	264	5
TAP	48	276	6
TAP	48	288	7
TAP	48	300	0
TAP	48	312	1
TAP	48	324	2
TAP	48	336	3
TAP	48	348	4
TAP	48	360	5
TAP	48	372	6
STR	49	0	0
SI_	49	0	0	96	48	5
STR	49	0	7
SI_	49	0	7	96	48	2
STR	49	96	0
SCR	49	96	0	96	48	3
STR	49	96	7
SCL	49	96	7	96	48	4
BRK	49	192	0
BRK	49	192	7
STR	49	288	1
SSR	49	288	1	96	144	5
STR	49	288	6
SSL	49	288	6	96	144	2
TTP	50	192	1	B	0	M1
TTP	50	192	2	E	0	M1
TTP	50	240	6	B	0	M1
TTP	50	240	6	E	0	M1
TTP	50	288	3	B	0	M1
TTP	50	288	3	E	0	M1
TTP	50	336	4	B	0	M1
TTP	50	336	5	E	0	M1
THO	51	0	0	144	C	0	M1
TAP	51	144	7
STR	51	192	7
SI_	51	192	7	96	48	3
SSL	51	192	7	96	48	3
TAP	52	0	1
HLD	52	0	5	96
TTP	52	96	3	E	0	M1
TTP	52	120	3	B	0	M1
TTP	52	144	4	B	0	M1
TTP	52	168	5	E	0	M1
HLD	52	192	6	96
TTP	52	288	1	E	0	M1
TTP	52	312	0	B	0	M1
TTP	52	336	7	B	0	M1
TTP	52	360	7	E	0	M1
TTP	53	0	5	B	0	M1
TTP	53	0	6	E	0	M1
TTP	53	48	1	B	0	M1
TTP	53	48	2	E	0	M1
TTP	53	96	3	B	0	M1
TTP	53	96	4	E	0	M1
TTP	53	144	0	C	0	M1
TAP	53	192	0
TAP	53	192	7
TAP	53	240	1
TAP	53	240	6
STR	53	288	2
SSL	53	288	2	96	144	6
STR	53	288	5
SSR	53	288	5	96	144	1
TTP	54	192	0	B	0	M1
TTP	54	192	0	E	0	M1
TTP	54	240	4	B	0	M1
TTP	54	240	4	E	0	M1
TTP	54	288	2	B	0	M1
TTP	54	288	2	E	0	M1
TTP	54	336	6	B	0	M1
TTP	54	336	6	E	0	M1
TTP	55	0	0	C	0	M1
TTP	55	96	7	E	0	M1
TTP	55	120	7	B	0	M1
TTP	55	144	0	B	0	M1
TTP	55	168	1	E	0	M1
HLD	55	192	2	96
TTP	55	288	6	E	0	M1
TTP	55	312	5	B	0	M1
TTP	55	336	4	B	0	M1
TTP	55	360	4	E	0	M1
BRK	56	0	0
BRK	56	96	1
BRK	56	192	2
BST	56	288	3
SUL	56	288	3	96	192	1
STR	57	0	3
SCR	57	0	3	96	96	6
XST	57	288	0
SCL	57	288	0	96	768	1
XTP	57	288	7
THO	60	0	0	288	C	0	M1
STR	60	288	1
SCR	60	288	1	96	288	0
HLD	62	0	5	480
TAP	62	96	4
TAP	62	288	4
TAP	63	96	4
XTP	63	288	2
XTP	63	288	5
TAP	64	0	2
TAP	64	48	3
TAP	64	96	4
TAP	64	144	5
TAP	64	240	5
TAP	64	336	3
TAP	65	0	3
TAP	65	48	5
TAP	65	96	4
TAP	65	144	3
TAP	65	192	2
TAP	65	240	3
TAP	65	240	4
BRK	65	288	1
BRK	65	288	6
HLD	66	0	3	96
HLD	66	0	5	96
TAP	66	144	1
TAP	66	144	3
TAP	66	240	4
STR	66	240	6
SCL	66	240	6	96	240	7
TTP	66	336	0	C	1	M1
XTP	67	192	1
TAP	67	288	0
TAP	67	288	5
HLD	68	0	1	96
HLD	68	0	3	96
TAP	68	144	4
TAP	68	144	6
STR	68	240	2
SCL	68	240	2	96	240	3
TAP	68	240	7
TTP	68	336	0	C	1	M1
XTP	69	192	5
TAP	69	288	1
TAP	69	288	4
HLD	70	0	3	96
HLD	70	0	5	96
TAP	70	144	1
TAP	70	144	3
TAP	70	240	4
STR	70	240	6
SCL	70	240	6	96	240	7
TTP	70	336	0	C	1	M1
XTP	71	192	1
TAP	71	288	0
TAP	71	288	4
TAP	72	0	4
TAP	72	0	5
TAP	72	96	1
TAP	72	96	3
TAP	72	144	1
TAP	72	144	3
TAP	72	240	4
TAP	72	240	6
TAP	72	336	2
TAP	72	336	3
TAP	73	0	1
TAP	73	0	4
TAP	73	48	5
TAP	73	72	4
TAP	73	96	6
TAP	73	144	2
TAP	73	168	3
TAP	73	192	1
BRK	73	240	0
BRK	73	240	7
BRK	73	288	1
BRK	73	288	6
HLD	74	0	1	48
HLD	74	0	3	48
HLD	74	96	4	48
HLD	74	96	6	48
HLD	74	192	1	48
HLD	74	192	2	48
HLD	74	288	5	48
HLD	74	288	6	48
HLD	75	0	1	48
HLD	75	0	3	48
HLD	75	96	4	48
HLD	75	96	6	48
TAP	75	192	2
TAP	75	240	1
TAP	75	240	3
BRK	75	288	0
BRK	75	288	4
HLD	76	0	6	48
HLD	76	0	7	48
HLD	76	96	0	48
HLD	76	96	1	48
HLD	76	192	5	48
HLD	76	192	7	48
HLD	76	288	0	48
HLD	76	288	2	48
TAP	77	0	1
STR	77	0	5
SI_	77	0	5	96	48	1
STR	77	96	0
SSL	77	96	0	96	48	4
SV_	77	96	0	96	48	2
TAP	77	96	5
BRK	77	192	0
XTP	77	288	2
XTP	77	288	6
TAP	78	0	1
HLD	78	0	3	48
TAP	78	48	2
TAP	78	96	3
TAP	78	96	4
TAP	78	144	5
HLD	78	192	3	48
TAP	78	192	6
TAP	78	240	5
TAP	78	288	2
TAP	78	288	4
TAP	78	336	1
TAP	79	0	0
HLD	79	0	4	48
TAP	79	48	1
TAP	79	96	2
TAP	79	96	5
TAP	79	144	6
HLD	79	192	4	48
TAP	79	192	7
TAP	79	240	6
XTP	79	288	0
XTP	79	288	5
TAP	80	0	3
TAP	80	0	6
TAP	80	48	2
TAP	80	48	5
TAP	80	96	1
TAP	80	96	4
TAP	80	144	0
TAP	80	144	3
TAP	80	192	0
TAP	80	204	1
TAP	80	216	2
TAP	80	228	3
TAP	80	240	4
TAP	80	252	5
TAP	80	264	6
TAP	80	276	7
TAP	80	288	0
TAP	80	300	1
TAP	80	312	2
TAP	80	324	3
TAP	80	336	4
TAP	80	348	5
TAP	80	360	6
TAP	80	372	7
BRK	81	0	0
HLD	81	0	4	192
TAP	81	192	3
BRK	81	288	0
BRK	81	288	7
STR	82	0	1
SV_	82	0	1	96	48	4
TAP	82	0	5
TAP	82	48	4
TAP	82	96	1
STR	82	144	7
SLL	82	144	7	96	96	3
STR	82	240	3
SV_	82	240	3	96	48	5
TAP	82	240	7
STR	82	336	0
SCL	82	336	0	96	48	5
TAP	83	48	0
STR	83	96	3
SI_	83	96	3	96	48	6
TAP	83	144	7
STR	83	192	0
SI_	83	192	0	96	48	4
TAP	83	192	3
TAP	83	240	1
TAP	83	288	0
TAP	83	288	2
TAP	84	0	3
STR	84	0	6
SV_	84	0	6	96	48	3
TAP	84	48	4
TAP	84	96	6
STR	84	144	0
SLR	84	144	0	96	96	4
TAP	84	240	0
STR	84	240	4
SV_	84	240	4	96	48	2
TAP	84	336	7
TAP	85	0	7
TAP	85	24	6
TAP	85	48	5
TAP	85	72	4
TAP	85	96	3
TAP	85	120	2
TAP	85	144	1
TAP	85	168	0
TAP	85	192	3
TAP	85	216	2
TAP	85	240	1
TAP	85	264	0
TAP	85	288	3
TAP	85	312	4
TAP	85	336	5
TAP	85	360	6
TAP	86	0	3
BST	86	0	7
SI_	86	0	7	96	48	3
TAP	86	96	7
STR	86	144	0
SLR	86	144	0	96	96	4
TAP	86	240	0
STR	86	240	4
SV_	86	240	4	96	48	2
STR	86	336	7
SCR	86	336	7	96	48	2
TAP	87	48	7
TAP	87	96	4
TAP	87	144	4
TAP	87	192	2
TAP	87	192	6
TAP	87	240	5
TAP	87	288	0
STR	87	288	4
SI_	87	288	4	96	48	0
TAP	87	312	1
TAP	87	336	2
TAP	87	360	3
TAP	88	0	4
BRK	88	0	7
TAP	88	96	1
STR	88	96	5
SI_	88	96	5	96	48	1
TAP	88	120	2
TAP	88	144	3
TAP	88	168	4
TAP	88	192	5
BRK	88	192	7
TAP	88	288	0
STR	88	288	4
SI_	88	288	4	96	48	0
TAP	88	312	1
TAP	88	336	2
TAP	88	360	3
TAP	89	0	4
BRK	89	0	7
TAP	89	96	1
STR	89	96	5
SI_	89	96	5	96	48	0
SV_	89	96	5	96	48	2
TAP	89	120	2
TAP	89	144	3
TAP	89	168	4
BRK	89	192	5
BRK	89	288	3
BRK	89	288	7
TAP	90	0	2
STR	90	0	6
SI_	90	0	6	96	48	2
TAP	90	48	3
TAP	90	96	6
STR	90	144	7
SLR	90	144	7	96	96	4
STR	90	240	4
SV_	90	240	4	96	48	2
TAP	90	240	7
STR	90	336	7
SCR	90	336	7	96	48	2
TAP	91	48	7
STR	91	96	4
SI_	91	96	4	96	48	1
TAP	91	144	0
TAP	91	192	4
STR	91	192	7
SI_	91	192	7	96	48	3
TAP	91	240	6
TAP	91	288	5
TAP	91	288	7
STR	92	0	1
SI_	92	0	1	96	48	5
TAP	92	0	4
TAP	92	48	3
TAP	92	96	1
STR	92	144	0
SLL	92	144	0	96	96	3
TAP	92	240	0
STR	92	240	3
SV_	92	240	3	96	48	5
TAP	92	336	0
TAP	93	0	0
TAP	93	24	1
TAP	93	48	2
TAP	93	72	3
TAP	93	96	4
TAP	93	120	5
TAP	93	144	6
TAP	93	168	7
TAP	93	192	4
TAP	93	216	5
TAP	93	240	6
TAP	93	264	7
TAP	93	288	4
TAP	93	312	3
TAP	93	336	2
TAP	93	360	1
BRK	94	0	0
STR	94	0	4
SCR	94	0	4	96	72	2
TAP	94	96	2
BRK	94	96	4
STR	94	192	4
SCL	94	192	4	96	72	6
BRK	94	288	4
TAP	94	288	6
STR	95	0	4
SCR	95	0	4	96	72	2
TAP	95	96	2
BRK	95	96	4
STR	95	192	4
SF_	95	192	4	96	48	0
BRK	95	288	4
HLD	96	0	2	48
HLD	96	0	6	48
HLD	96	72	1	48
HLD	96	72	3	48
HLD	96	144	0	48
HLD	96	144	6	48
HLD	96	216	4	48
HLD	96	216	5	48
BRK	96	288	0
BRK	96	288	7
STR	97	0	3
SCL	97	0	3	96	120	4
STR	97	0	4
SXL	97	0	4	96	120	3
XTP	97	96	3
XTP	97	96	4
BRK	97	288	1
BRK	97	288	5
STR	98	0	6
SLL	98	0	6	96	96	0
TAP	98	48	7
TAP	98	96	0
TAP	98	144	1
STR	98	192	2
SLL	98	192	2	96	96	4
TAP	98	240	3
TAP	98	288	4
TAP	98	336	5
STR	99	0	6
SLL	99	0	6	96	96	0
TAP	99	48	7
TAP	99	96	0
TAP	99	144	1
TAP	99	192	2
TAP	99	240	3
STR	99	288	4
SCL	99	288	4	96	48	1
TAP	99	336	5
TAP	100	0	4
TAP	100	0	6
STR	100	48	7
SCL	100	48	7	96	48	4
TAP	100	96	0
TAP	100	144	1
TAP	100	144	7
STR	100	192	2
SCL	100	192	2	96	48	7
TAP	100	240	3
TAP	100	288	2
STR	100	288	4
SI_	100	288	4	96	48	1
TAP	100	336	5
TAP	101	0	4
TAP	101	0	6
STR	101	48	7
SI_	101	48	7	96	48	3
TAP	101	96	0
STR	101	144	1
SSR	101	144	1	96	72	5
TAP	101	144	7
TAP	101	240	7
BRK	101	288	7
STR	102	0	1
SLR	102	0	1	96	96	7
TAP	102	48	0
TAP	102	96	7
TAP	102	144	6
STR	102	192	5
SLR	102	192	5	96	96	3
TAP	102	240	4
TAP	102	288	3
TAP	102	336	2
STR	103	0	1
SLR	103	0	1	96	96	7
TAP	103	48	0
TAP	103	96	7
TAP	103	144	6
TAP	103	192	5
TAP	103	240	5
TAP	103	288	2
TAP	103	288	4
TAP	103	336	3
TAP	103	336	5
TAP	104	0	4
HLD	104	0	6	96
TAP	104	144	4
TAP	104	144	6
HLD	104	192	3	96
TAP	104	192	7
TAP	104	288	5
TAP	104	336	5
TAP	104	360	4
HLD	105	0	6	72
HLD	105	72	4	72
HLD	105	144	3	144
BRK	105	240	0
BRK	105	288	0
STR	106	0	0
SI_	106	0	0	96	48	2
TAP	106	0	5
TAP	106	48	4
STR	106	96	0
SI_	106	96	0	96	48	4
TAP	106	96	5
TAP	106	144	6
STR	106	192	0
SI_	106	192	0	96	48	2
TAP	106	192	5
TAP	106	240	3
STR	106	288	0
SI_	106	288	0	96	48	4
TAP	106	288	5
TAP	106	336	6
STR	107	0	0
SI_	107	0	0	96	48	2
TAP	107	0	5
TAP	107	48	3
TAP	107	96	0
TAP	107	96	5
TAP	107	144	6
TAP	107	192	3
TAP	107	192	5
TAP	107	240	4
TAP	107	288	2
TAP	107	288	3
TAP	107	336	1
TAP	108	0	6
TAP	108	0	7
TAP	108	48	0
TAP	108	48	5
HLD	108	96	1	48
HLD	108	96	3	48
HLD	108	168	4	48
HLD	108	168	6	48
TAP	108	240	0
TAP	108	240	3
TAP	108	288	1
TAP	108	288	4
TAP	108	336	2
TAP	108	336	5
HLD	109	0	3	48
HLD	109	0	7	48
STR	109	72	1
SLR	109	72	1	96	48	6
STR	109	72	5
SLR	109	72	5	96	48	2
BRK	109	144	1
BRK	109	144	5
BRK	109	288	3
BRK	109	288	7
STR	110	0	0
SCR	110	0	0	96	72	6
TAP	110	0	4
BRK	110	96	0
TAP	110	96	6
STR	110	192	0
SCL	110	192	0	96	72	2
BRK	110	288	0
TAP	110	288	2
STR	111	0	0
SCR	111	0	0	96	72	6
BRK	111	96	0
TAP	111	96	6
STR	111	192	0
SF_	111	192	0	96	48	4
BRK	111	288	0
TAP	112	0	7
TAP	112	24	3
TAP	112	48	7
TAP	112	72	3
TAP	112	96	6
TAP	112	120	2
TAP	112	144	6
TAP	112	168	2
TAP	112	192	5
TAP	112	216	1
TAP	112	240	5
TAP	112	264	1
TAP	112	288	4
TAP	112	300	3
TAP	112	312	2
TAP	112	324	1
TAP	112	336	0
TAP	112	348	7
TAP	112	360	6
TAP	112	372	5
BST	113	0	0
SXR	113	0	0	96	96	7
BRK	113	0	4
STR	113	96	7
SI_	113	96	7	96	48	2
SV_	113	96	7	96	48	4
BRK	113	288	1
BRK	113	288	5
TAP	114	0	2
TAP	114	0	3
TAP	114	48	1
TAP	114	96	2
TAP	114	96	3
TAP	114	144	4
TAP	114	192	2
TAP	114	192	3
TAP	114	240	1
STR	114	288	2
SCL	114	288	2	96	96	5
TAP	114	288	3
TAP	114	336	4
TAP	115	0	3
TAP	115	48	3
STR	115	96	4
SI_	115	96	4	96	48	7
TAP	115	144	4
STR	115	192	3
SI_	115	192	3	96	48	0
TAP	115	240	3
XTP	115	288	5
TAP	116	0	4
TAP	116	0	5
TAP	116	48	6
TAP	116	96	4
TAP	116	96	5
TAP	116	144	3
TAP	116	192	4
TAP	116	192	5
TAP	116	240	6
TAP	116	288	4
STR	116	288	5
SCR	116	288	5	96	96	2
TAP	116	336	3
TAP	117	0	4
TAP	117	48	4
STR	117	96	3
SI_	117	96	3	96	48	0
TAP	117	144	3
STR	117	192	4
SI_	117	192	4	96	48	7
TAP	117	240	4
XTP	117	288	2
TAP	118	0	3
TAP	118	0	6
TAP	118	48	5
TAP	118	96	2
TAP	118	96	4
TAP	118	144	1
TAP	118	192	0
TAP	118	192	7
STR	118	240	6
SI_	118	240	6	96	48	2
TAP	118	288	4
TAP	118	336	6
STR	119	0	0
SI_	119	0	0	96	48	4
TAP	119	48	7
TAP	119	96	0
TAP	119	144	7
STR	119	192	2
SI_	119	192	2	96	48	6
STR	119	192	6
SI_	119	192	6	96	48	2
TAP	120	0	1
TAP	120	0	3
TAP	120	48	2
TAP	120	96	4
TAP	120	96	6
TAP	120	144	5
BRK	120	192	0
TAP	120	192	4
TAP	120	216	1
TAP	120	240	2
BRK	120	240	7
TAP	120	264	6
BRK	120	288	1
TAP	120	288	5
TAP	120	312	2
TAP	120	336	3
BRK	120	336	6
TAP	120	360	5
BRK	121	0	0
TAP	121	0	4
TAP	121	48	2
TAP	121	48	6
TAP	121	96	2
TAP	121	96	6
TAP	121	120	1
TAP	121	120	5
TAP	121	144	0
TAP	121	144	4
TAP	121	168	3
TAP	121	168	7
TAP	121	192	2
TAP	121	192	6
TAP	121	240	0
TAP	121	240	4
STR	121	288	2
SI_	121	288	2	96	24	5
STR	121	288	6
SI_	121	288	6	96	24	1
BRK	122	0	2
BRK	122	0	6

T_REC_TAP	611
T_REC_BRK	64
T_REC_XTP	55
T_REC_HLD	81
T_REC_XHO	2
T_REC_STR	128
T_REC_BST	6
T_REC_XST	3
T_REC_TTP	43
T_REC_THO	2
T_REC_SLD	144
T_REC_ALL	1139
T_NUM_TAP	840
T_NUM_BRK	70
T_NUM_HLD	85
T_NUM_SLD	144
T_NUM_ALL	1139
T_JUDGE_TAP	910
T_JUDGE_HLD	152
T_JUDGE_SLD	144
T_JUDGE_ALL	1206
TTM_EACHPAIRS	226
TTM_SCR_TAP	420000
TTM_SCR_BRK	182000
TTM_SCR_HLD	85000
TTM_SCR_SLD	216000
TTM_SCR_ALL	903000
TTM_SCR_S	869150
TTM_SCR_SS	896000
TTM_RAT_ACV	10078

