VERSION	0.00.00	1.03.00
FES_MODE	0
BPM_DEF	190.000	190.000	190.000	190.000
MET_DEF	4	4
RESOLUTION	384
CLK_DEF	384
COMPATIBLE_CODE	MA2

BPM	0	0	190.000
MET	0	0	4	4

STR	2	0	3
SCL	2	0	3	96	1248	4
TAP	2	0	4
TAP	6	0	3
TAP	6	0	4
TAP	6	96	3
TAP	6	96	4
TAP	6	288	2
TAP	7	96	1
TAP	7	288	0
STR	8	0	0
SI_	8	0	0	96	48	2
STR	8	192	7
SI_	8	192	7	96	48	5
TAP	9	0	0
TAP	9	96	0
TAP	9	96	7
TAP	9	144	0
TAP	9	144	7
XTP	9	192	1
XTP	9	192	6
HLD	10	0	1	1152
XTP	10	0	3
XTP	10	192	3
XTP	11	0	4
XTP	11	192	4
XTP	12	0	5
XTP	12	192	6
XST	13	0	7
SCL	13	0	7	96	96	4
TAP	13	288	2
TAP	13	288	5
TAP	14	0	3
TAP	14	96	3
TAP	14	192	4
TAP	14	288	4
TAP	15	0	2
TAP	15	96	2
TAP	15	192	5
TAP	15	288	5
TAP	16	0	1
TAP	16	48	1
TAP	16	96	6
TAP	16	144	6
TAP	16	192	0
TAP	16	240	0
TAP	16	288	7
TAP	16	336	7
BRK	17	0	1
BRK	17	0	6
TTP	17	288	0	C	0	M1
XTP	18	0	3
XTP	18	0	6
XTP	18	48	3
XHO	18	48	6	480
TAP	18	144	4
TAP	18	240	4
TAP	18	336	3
TAP	19	48	3
TAP	19	144	4
TAP	19	192	3
TAP	19	192	5
TAP	20	0	1
TAP	20	0	4
HLD	20	48	1	480
TAP	20	48	4
TAP	20	144	3
TAP	20	240	3
TAP	20	336	4
TAP	21	48	4
TAP	21	144	3
TAP	21	192	2
TAP	21	192	4
XTP	21	288	0
XTP	21	288	6
XTP	22	0	1
XTP	22	0	7
XTP	22	48	1
XHO	22	48	7	480
TAP	22	144	2
TAP	22	240	0
TAP	22	336	2
TAP	23	48	4
TAP	23	144	2
TAP	23	192	3
TAP	23	192	6
TAP	24	0	0
TAP	24	0	6
TAP	24	48	0
HLD	24	48	6	288
TAP	24	144	7
TAP	24	240	1
TAP	24	336	3
XTP	25	0	4
XTP	25	0	5
XTP	25	96	2
XTP	25	96	3
XTP	25	192	3
XTP	25	192	4
XTP	25	288	1
XTP	25	288	6
TAP	26	0	2
TAP	26	0	4
TAP	26	96	3
TAP	26	144	3
TAP	26	192	4
HLD	26	240	4	96
HLD	26	336	6	96
HLD	27	48	0	96
STR	27	144	2
SI_	27	144	2	96	48	6
XTP	27	240	7
XST	27	288	7
SI_	27	288	7	96	48	3
XST	28	96	2
SCL	28	96	2	96	48	7
XST	28	288	6
SCL	28	288	6	96	48	3
STR	29	96	1
SI_	29	96	1	96	48	5
TAP	29	288	3
TAP	29	288	7
TAP	30	0	5
TAP	30	48	5
TAP	30	96	3
HLD	30	144	3	96
HLD	30	240	6	96
HLD	30	336	1	96
TAP	31	48	3
TAP	31	96	3
TAP	31	144	2
TAP	31	192	1
TAP	31	192	4
TAP	31	288	3
TAP	31	288	6
XTP	32	0	7
XTP	32	48	6
XTP	32	96	5
XTP	32	144	4
XTP	32	192	3
XTP	32	240	2
XTP	32	288	1
XTP	32	336	0
STR	33	0	7
SI_	33	0	7	96	48	3
TTP	33	192	0	C	1	M1
TTP	33	192	1	B	0	M1
TTP	33	192	2	B	0	M1
TTP	33	192	5	B	0	M1
TTP	33	192	6	B	0	M1
XTP	34	0	0
XTP	34	48	1
XHO	34	96	2	48
XHO	34	96	4	48
HLD	34	192	3	48
HLD	34	192	5	48
HLD	34	288	3	48
HLD	34	288	5	48
HLD	35	0	2	48
HLD	35	0	4	48
HLD	35	96	2	48
HLD	35	96	4	48
TAP	35	192	7
TAP	35	240	7
TAP	35	288	1
TAP	35	336	1
HLD	36	0	2	48
HLD	36	0	4	48
HLD	36	96	2	48
HLD	36	96	4	48
HLD	36	192	3	48
HLD	36	192	5	48
HLD	36	288	3	48
HLD	36	288	5	48
HLD	37	0	2	48
HLD	37	0	4	48
HLD	37	96	3	48
HLD	37	96	5	48
TAP	37	192	2
TAP	37	192	6
TAP	38	0	7
TAP	38	48	0
HLD	38	96	1	48
HLD	38	96	3	48
HLD	38	192	1	48
HLD	38	192	3	48
HLD	38	288	4	48
HLD	38	288	6	48
HLD	39	0	4	48
HLD	39	0	6	48
HLD	39	96	1	48
HLD	39	96	3	48
TAP	39	192	2
TAP	39	240	2
TAP	39	288	7
TAP	39	336	7
HLD	40	0	4	48
HLD	40	0	6	48
HLD	40	96	3	48
HLD	40	96	5	48
HLD	40	192	2	48
HLD	40	192	4	48
TAP	40	288	1
TAP	40	288	3
TAP	41	0	0
TAP	41	48	0
TAP	41	96	7
TAP	41	144	7
STR	41	192	1
SI_	41	192	1	96	48	3
STR	41	192	6
SI_	41	192	6	96	48	4
BRK	42	96	2
BST	42	96	7
SI_	42	96	7	96	48	5
STR	42	192	0
SI_	42	192	0	96	48	3
STR	42	288	7
SI_	42	288	7	96	48	4
STR	43	0	0
SI_	43	0	0	96	48	2
STR	43	96	7
SI_	43	96	7	96	48	3
TAP	43	192	3
TAP	43	288	1
TAP	43	288	5
STR	44	0	0
SI_	44	0	0	96	48	2
TAP	44	0	5
STR	44	96	7
SI_	44	96	7	96	48	4
STR	44	192	0
SI_	44	192	0	96	48	4
TAP	44	288	5
XTP	45	0	4
XTP	45	0	5
XTP	45	72	4
XTP	45	72	5
XTP	45	144	2
XTP	45	144	3
XTP	45	216	2
XTP	45	216	3
XTP	45	288	1
XTP	45	336	0
HLD	46	0	7	48
HLD	46	96	4	48
HLD	46	96	6	48
HLD	46	192	3	48
HLD	46	192	5	48
TAP	46	288	2
TAP	46	288	4
HLD	47	0	0	48
HLD	47	96	1	48
HLD	47	96	3	48
HLD	47	192	2	48
HLD	47	192	4	48
TAP	47	288	3
TAP	47	288	5
TAP	48	0	6
TAP	48	48	6
TAP	48	96	1
TAP	48	144	1
TAP	48	192	7
TAP	48	216	0
TAP	48	240	7
TAP	48	264	0
TAP	48	288	7
TAP	48	312	0
TAP	48	336	7
TAP	48	360	0
STR	49	0	7
SUL	49	0	7	96	96	3
SUR	49	0	7	96	96	3
XTP	49	288	2
XTP	49	288	6
STR	50	0	1
SI_	50	0	1	96	48	3
BRK	50	0	4
TAP	50	192	4
TAP	50	240	4
TAP	50	288	3
TAP	50	336	3
TAP	51	0	2
TAP	51	0	4
TAP	51	96	3
TAP	51	96	5
TAP	51	192	4
TAP	51	192	6
TAP	51	288	4
HLD	51	288	6	576
STR	52	0	5
SI_	52	0	5	96	48	1
STR	52	192	2
SI_	52	192	2	96	48	4
STR	53	0	0
SI_	53	0	0	96	48	4
TAP	53	192	2
TAP	53	192	6
BRK	53	288	1
BRK	53	288	5
STR	54	0	3
SI_	54	0	3	96	48	0
TAP	54	0	6
TAP	54	192	7
TAP	54	240	7
TAP	54	288	1
HLD	54	336	1	432
STR	55	0	3
SI_	55	0	3	96	48	5
STR	55	192	6
SI_	55	192	6	96	48	2
XTP	56	0	0
TAP	56	48	0
XTP	56	96	1
TAP	56	144	1
XTP	56	192	2
TAP	56	240	2
XTP	56	288	3
TAP	56	336	3
STR	57	0	4
SV_	57	0	4	96	96	1
SV_	57	0	4	96	96	7
BRK	57	288	2
BRK	57	288	6
HLD	58	0	4	1440
XTP	60	0	1
XTP	60	192	2
XST	61	0	3
SCL	61	0	3	96	144	0
HLD	62	0	1	768
TAP	62	96	3
TAP	62	288	3
TAP	63	96	4
TAP	63	288	5
XHO	64	0	6	480
XTP	64	96	4
XTP	64	288	5
XTP	65	96	7
XTP	65	192	0
XTP	65	192	7
BRK	65	288	1
BRK	65	288	6
HLD	66	0	2	96
HLD	66	0	4	96
TAP	66	144	3
TAP	66	144	5
STR	66	240	4
SCR	66	240	4	96	288	3
TAP	66	240	6
TAP	66	336	4
TAP	66	336	6
HLD	68	0	3	96
HLD	68	0	5	96
TAP	68	144	2
TAP	68	144	4
TAP	68	240	1
STR	68	240	3
SCL	68	240	3	96	288	4
TAP	68	336	1
TAP	68	336	3
HLD	70	0	0	96
HLD	70	0	6	96
TAP	70	144	1
TAP	70	144	7
STR	70	240	0
SCR	70	240	0	96	288	7
TAP	70	240	2
TAP	70	336	0
HLD	70	336	2	336
HLD	72	0	1	96
HLD	72	0	7	96
TAP	72	144	0
TAP	72	144	6
TAP	72	240	5
STR	72	240	7
SCL	72	240	7	96	240	1
HLD	72	336	5	240
TAP	72	336	7
BRK	73	288	1
BRK	73	288	6
XTP	74	0	6
XTP	74	0	7
TTP	74	96	0	C	0	M1
TTP	74	96	6	B	0	M1
XTP	74	192	0
XTP	74	192	1
TTP	74	288	0	C	0	M1
TTP	74	288	1	B	0	M1
XTP	75	0	6
XTP	75	0	7
TTP	75	96	0	C	0	M1
TTP	75	96	6	B	0	M1
XTP	75	192	0
XTP	75	192	1
XTP	75	288	2
XTP	75	288	7
XTP	76	0	0
XTP	76	0	6
TTP	76	96	0	B	0	M1
TTP	76	96	0	C	0	M1
TTP	76	96	6	B	0	M1
XTP	76	192	1
XTP	76	192	7
TTP	76	288	0	C	0	M1
TTP	76	288	1	B	0	M1
TTP	76	288	7	B	0	M1
XTP	77	0	0
XTP	77	0	6
TTP	77	96	0	B	0	M1
TTP	77	96	0	C	0	M1
TTP	77	96	6	B	0	M1
XTP	77	192	1
XTP	77	192	7
XTP	77	288	2
XTP	77	288	6
TAP	78	0	4
TAP	78	96	4
TAP	78	192	3
TAP	78	192	5
TAP	78	288	3
TAP	78	288	5
TAP	79	0	2
TAP	79	0	6
TAP	79	96	2
TAP	79	96	6
TAP	79	192	1
TAP	79	192	7
TAP	79	288	1
TAP	79	288	7
TAP	80	0	0
TAP	80	48	0
TAP	80	96	7
TAP	80	144	7
TAP	80	192	0
TAP	80	216	7
TAP	80	240	0
TAP	80	264	7
TAP	80	288	0
TAP	80	312	7
TAP	80	336	0
TAP	80	360	7
STR	81	0	0
SCL	81	0	0	96	96	4
SCR	81	0	0	96	96	4
TTP	81	288	0	C	1	M1
XTP	82	0	6
XTP	82	48	6
XTP	82	96	7
TAP	82	144	5
TAP	82	192	1
TAP	82	240	1
TAP	82	288	0
TAP	82	336	2
TAP	83	0	6
TAP	83	48	6
TAP	83	96	7
TAP	83	144	4
TAP	83	192	0
TAP	83	240	0
TAP	83	288	1
TAP	83	288	7
TAP	84	0	2
TAP	84	48	2
TAP	84	96	0
TAP	84	144	3
TAP	84	192	5
TAP	84	240	5
TAP	84	288	7
TAP	84	336	4
XTP	85	0	1
XTP	85	24	0
XTP	85	48	1
XTP	85	72	0
XTP	85	96	1
TAP	85	144	6
TAP	85	192	6
TAP	85	192	7
TAP	85	240	6
TAP	85	240	7
BRK	85	288	0
BRK	85	288	5
TAP	86	0	1
TAP	86	48	1
TAP	86	96	3
TAP	86	144	0
TAP	86	192	6
TAP	86	240	6
TAP	86	288	4
TAP	86	336	7
TAP	87	0	1
TAP	87	48	1
TAP	87	96	3
TAP	87	144	0
TAP	87	192	4
TAP	87	240	4
TAP	87	288	1
TAP	87	288	5
HLD	88	0	6	96
TTP	88	96	5	B	0	M1
TTP	88	96	6	B	0	M1
HLD	88	192	1	96
TTP	88	288	1	B	0	M1
TTP	88	288	2	B	0	M1
HLD	89	0	4	96
TTP	89	96	3	B	0	M1
TTP	89	96	4	B	0	M1
TTP	89	192	0	C	1	M1
TTP	89	192	2	E	0	M1
TTP	89	192	6	E	0	M1
XTP	90	0	6
XTP	90	0	7
XTP	90	48	5
TAP	90	96	3
TAP	90	96	4
TAP	90	144	2
TAP	90	192	0
TAP	90	192	1
TAP	90	240	7
TAP	90	288	4
TAP	90	288	6
TAP	90	336	5
TAP	91	0	1
TAP	91	0	3
TAP	91	48	0
TAP	91	96	6
TAP	91	96	7
TAP	91	144	5
TAP	91	192	2
STR	91	192	4
SI_	91	192	4	96	48	0
TAP	91	288	1
XTP	92	0	0
XTP	92	0	1
XTP	92	48	2
TAP	92	96	3
TAP	92	96	4
TAP	92	144	5
TAP	92	192	6
TAP	92	192	7
TAP	92	240	0
TAP	92	288	1
TAP	92	288	3
TAP	92	336	2
XTP	93	0	5
XTP	93	24	4
XTP	93	48	5
XTP	93	72	4
XTP	93	96	5
TAP	93	144	2
TAP	93	192	2
TAP	93	192	3
TAP	93	240	2
TAP	93	240	3
BRK	93	288	1
BRK	93	288	4
TAP	94	0	6
TAP	94	0	7
TAP	94	48	5
TAP	94	96	3
TAP	94	96	4
TAP	94	144	2
TAP	94	192	0
TAP	94	192	1
TAP	94	240	7
TAP	94	288	4
TAP	94	288	6
TAP	94	336	5
TAP	95	0	3
TAP	95	0	4
TAP	95	48	2
TAP	95	96	0
TAP	95	96	1
TAP	95	144	7
TAP	95	192	4
TAP	95	192	6
TAP	95	240	5
TAP	95	288	3
TAP	95	288	4
TAP	95	336	2
XTP	96	0	0
XTP	96	0	1
XTP	96	72	0
XTP	96	72	1
XTP	96	144	6
XTP	96	144	7
XTP	96	216	6
XTP	96	216	7
XTP	96	288	0
XTP	96	288	7
XTP	96	336	0
XTP	96	336	7
XST	97	0	1
SLR	97	0	1	96	96	0
XST	97	0	6
SLL	97	0	6	96	96	7
TTP	97	288	0	C	1	M1
XST	98	0	6
SI_	98	0	6	96	48	3
XTP	98	48	6
STR	98	96	2
SI_	98	96	2	96	48	7
TAP	98	144	2
TAP	98	192	4
TAP	98	240	4
TAP	98	288	0
TAP	98	288	5
STR	99	0	1
SI_	99	0	1	96	48	4
TAP	99	48	1
STR	99	96	5
SI_	99	96	5	96	48	0
TAP	99	144	5
TAP	99	192	3
TAP	99	240	3
TAP	99	288	2
TAP	99	288	7
STR	100	0	6
SI_	100	0	6	96	48	1
TAP	100	48	6
STR	100	96	2
SI_	100	96	2	96	48	5
TAP	100	144	2
STR	100	192	6
SI_	100	192	6	96	48	1
TAP	100	240	6
TAP	100	288	3
XTP	101	0	2
XTP	101	24	3
XTP	101	48	2
XTP	101	72	3
XTP	101	96	2
TAP	101	144	4
TAP	101	192	4
TAP	101	192	5
BRK	101	288	3
BRK	101	288	6
STR	102	0	5
SV_	102	0	5	96	48	0
TAP	102	48	5
STR	102	96	1
SCR	102	96	1	96	48	4
TAP	102	144	1
TAP	102	192	7
TAP	102	240	7
TAP	102	288	3
TAP	102	288	6
STR	103	0	2
SCL	103	0	2	96	48	7
TAP	103	48	2
STR	103	96	6
SV_	103	96	6	96	48	3
TAP	103	144	6
TAP	103	192	0
TAP	103	240	0
TAP	103	288	1
TAP	103	288	4
HLD	104	0	2	96
STR	104	0	3
SI_	104	0	3	96	48	6
STR	104	192	4
SI_	104	192	4	96	48	1
HLD	104	192	5	96
HLD	105	0	2	96
STR	105	0	3
SI_	105	0	3	96	48	6
TTP	105	192	0	C	1	M1
TTP	105	192	1	B	0	M1
TTP	105	192	2	B	0	M1
TTP	105	192	5	B	0	M1
TTP	105	192	6	B	0	M1
XTP	106	0	7
XTP	106	48	7
XTP	106	96	0
XTP	106	96	6
XTP	106	192	1
XHO	106	192	7	96
TTP	106	288	3	B	0	M1
TTP	106	288	4	B	0	M1
TTP	106	288	4	E	0	M1
XHO	107	0	0	96
XTP	107	0	6
TTP	107	96	3	B	0	M1
TTP	107	96	4	B	0	M1
TTP	107	96	4	E	0	M1
XHO	107	192	1	48
XHO	107	192	7	48
XTP	107	288	2
XTP	107	288	6
XHO	108	0	1	96
XTP	108	0	3
TTP	108	96	0	B	0	M1
TTP	108	96	0	E	0	M1
TTP	108	96	7	B	0	M1
XTP	108	192	4
XHO	108	192	6	96
TTP	108	288	0	B	0	M1
TTP	108	288	0	E	0	M1
TTP	108	288	7	B	0	M1
XTP	109	0	2
XTP	109	0	4
XTP	109	72	2
XTP	109	72	4
XTP	109	144	3
XTP	109	144	5
XTP	109	216	3
XTP	109	216	5
XTP	109	288	2
XTP	109	288	6
TAP	110	0	0
TAP	110	48	0
TAP	110	96	1
TAP	110	144	1
TAP	110	192	2
TAP	110	240	2
TAP	110	288	3
TAP	110	336	3
TAP	111	0	4
TAP	111	48	4
TAP	111	96	5
TAP	111	144	5
TAP	111	192	6
TAP	111	240	6
TAP	111	288	7
TAP	111	336	7
TAP	112	0	0
TAP	112	24	7
TAP	112	48	0
TAP	112	72	7
TAP	112	96	0
TAP	112	120	7
TAP	112	144	0
TAP	112	168	7
TAP	112	192	1
TAP	112	216	6
TAP	112	240	1
TAP	112	264	6
TAP	112	288	1
TAP	112	312	6
TAP	112	336	1
TAP	112	360	6
XTP	113	0	0
XTP	113	24	1
XTP	113	48	2
XTP	113	72	3
XTP	113	96	4
XTP	113	120	5
XTP	113	144	6
XTP	113	168	7
BRK	113	192	0
XTP	114	0	4
XHO	114	0	6	672
TAP	114	96	4
TAP	114	192	5
TAP	114	288	5
XTP	115	0	7
XTP	115	96	0
XTP	115	192	1
XTP	115	288	2
HLD	116	0	1	576
TAP	116	0	3
STR	116	96	3
SI_	116	96	3	96	48	7
STR	116	288	6
SI_	116	288	6	96	48	4
STR	117	96	3
SI_	117	96	3	96	48	7
TAP	117	288	0
TAP	117	288	5
TAP	118	0	2
TAP	118	48	2
TAP	118	96	4
TAP	118	144	4
TAP	118	192	3
TAP	118	240	3
TAP	118	288	5
TAP	118	336	5
TAP	119	0	0
TAP	119	48	0
TAP	119	96	7
TAP	119	144	7
TAP	119	192	1
TAP	119	240	1
TAP	119	288	6
TAP	119	336	6
TAP	120	0	0
TAP	120	24	7
TAP	120	48	0
TAP	120	72	7
TAP	120	96	0
TAP	120	120	7
TAP	120	144	0
TAP	120	168	7
TAP	120	192	1
TAP	120	216	6
TAP	120	240	1
TAP	120	264	6
TAP	120	288	1
TAP	120	312	6
TAP	120	336	1
TAP	120	360	6
STR	121	0	0
SXL	121	0	0	96	144	4
SXR	121	0	0	96	144	4
TAP	121	288	2
TAP	121	288	6
BRK	122	0	0
BRK	122	0	4

T_REC_TAP	385
T_REC_BRK	21
T_REC_XTP	148
T_REC_HLD	76
T_REC_XHO	12
T_REC_STR	47
T_REC_BST	1
T_REC_XST	8
T_REC_TTP	49
T_REC_THO	0
T_REC_SLD	60
T_REC_ALL	807
T_NUM_TAP	637
T_NUM_BRK	22
T_NUM_HLD	88
T_NUM_SLD	60
T_NUM_ALL	807
T_JUDGE_TAP	659
T_JUDGE_HLD	273
T_JUDGE_SLD	60
T_JUDGE_ALL	992
TTM_EACHPAIRS	169
TTM_SCR_TAP	318500
TTM_SCR_BRK	57200
TTM_SCR_HLD	88000
TTM_SCR_SLD	90000
TTM_SCR_ALL	553700
TTM_SCR_S	535000
TTM_SCR_SS	551500
TTM_RAT_ACV	10039

