VERSION	0.00.00	1.03.00
FES_MODE	0
BPM_DEF	190.000	190.000	190.000	190.000
MET_DEF	4	4
RESOLUTION	384
CLK_DEF	384
COMPATIBLE_CODE	MA2

BPM	0	0	190.000
MET	0	0	4	4

STR	2	0	3
SCL	2	0	3	96	1248	4
TAP	6	0	3
TAP	6	192	3
TAP	7	0	4
TAP	7	192	4
TAP	8	0	2
TAP	8	0	5
TAP	8	192	2
TAP	8	192	5
BST	9	0	1
SI_	9	0	1	96	96	3
BST	9	0	6
SI_	9	0	6	96	96	4
TAP	10	0	3
TAP	10	0	4
TAP	10	192	3
TAP	10	192	4
TAP	11	0	2
TAP	11	0	5
TAP	11	192	2
TAP	11	192	5
TAP	12	0	1
TAP	12	0	6
TAP	12	192	1
TAP	12	192	6
XST	13	0	0
SI_	13	0	0	96	144	4
XTP	13	0	7
TAP	14	0	5
TAP	14	96	5
TAP	14	192	4
TAP	14	288	4
TAP	15	0	3
TAP	15	96	3
TAP	15	192	2
TAP	15	288	2
TAP	16	0	1
TAP	16	96	1
TAP	16	192	0
TAP	16	288	0
BRK	17	0	1
BRK	17	0	6
TAP	18	0	2
TAP	18	96	2
TAP	18	192	3
TAP	18	288	3
TAP	19	0	2
TAP	19	0	3
TAP	19	96	2
TAP	19	96	3
TAP	19	192	1
TAP	19	192	4
TAP	20	0	5
TAP	20	96	5
TAP	20	192	4
TAP	20	288	4
TAP	21	0	4
TAP	21	0	5
TAP	21	96	4
TAP	21	96	5
TAP	21	192	3
TAP	21	192	6
TAP	22	0	6
TAP	22	96	6
TAP	22	192	7
TAP	22	288	7
TAP	23	0	6
TAP	23	0	7
TAP	23	96	6
TAP	23	96	7
TAP	23	192	0
TAP	23	192	5
TAP	24	0	1
TAP	24	96	1
TAP	24	192	0
TAP	24	288	0
TAP	25	0	0
TAP	25	0	1
TAP	25	96	0
TAP	25	96	7
XTP	25	192	1
XTP	25	192	6
HLD	26	0	2	192
TAP	26	96	3
TAP	26	192	3
HLD	27	0	5	192
TAP	27	96	4
TAP	27	192	4
HLD	28	0	6	192
HLD	28	192	7	192
HLD	29	0	0	192
XTP	29	192	1
TAP	30	0	2
TAP	30	96	2
TAP	30	192	3
TAP	30	288	3
TAP	31	0	4
TAP	31	96	4
TAP	31	192	5
TAP	31	288	5
STR	32	0	1
SI_	32	0	1	96	144	4
STR	32	0	6
SI_	32	0	6	96	144	3
XTP	33	0	3
XTP	33	0	4
XTP	33	96	3
XTP	33	96	4
BRK	33	192	2
BRK	33	192	5
HLD	34	0	2	576
TAP	34	0	3
TAP	34	96	3
TAP	34	192	4
TAP	34	288	4
TAP	35	0	3
TAP	35	96	3
TAP	35	192	3
TAP	36	0	4
HLD	36	0	5	480
TAP	36	96	4
TAP	36	192	3
TAP	36	288	3
TAP	37	0	4
TAP	37	96	4
TAP	37	192	3
TAP	37	192	5
HLD	38	0	6	576
TAP	38	0	7
TAP	38	96	7
TAP	38	192	0
TAP	38	288	0
TAP	39	0	7
TAP	39	96	7
TAP	39	192	0
TAP	40	0	0
HLD	40	0	1	480
TAP	40	96	0
TAP	40	192	7
TAP	40	288	7
TAP	41	0	0
TAP	41	96	0
TAP	41	192	2
TAP	41	192	7
TAP	42	0	6
TAP	42	96	6
XTP	42	192	6
XTP	42	192	7
XTP	42	288	6
XTP	42	288	7
XTP	43	0	6
XTP	43	0	7
XTP	43	96	6
XTP	43	96	7
XTP	43	192	0
XTP	43	192	5
TAP	44	0	1
TAP	44	96	1
XTP	44	192	0
XTP	44	192	1
XTP	44	288	0
XTP	44	288	1
XTP	45	0	0
XTP	45	0	1
XTP	45	96	0
XTP	45	96	1
XTP	45	192	2
XTP	45	192	7
TAP	46	0	0
TAP	46	96	1
TAP	46	192	2
TAP	46	288	3
TAP	47	0	4
TAP	47	96	5
TAP	47	192	6
TAP	47	288	7
TAP	48	0	0
TAP	48	48	0
TAP	48	96	0
TAP	48	192	7
TAP	48	240	7
TAP	48	288	7
BRK	49	0	1
BRK	49	0	6
XST	50	0	1
SUR	50	0	1	96	144	5
STR	51	0	6
SI_	51	0	6	96	144	3
STR	52	0	2
SI_	52	0	2	96	144	5
STR	53	0	6
SI_	53	0	6	96	144	2
STR	54	0	1
SI_	54	0	1	96	144	5
STR	55	0	7
SI_	55	0	7	96	144	3
TAP	56	0	2
TAP	56	96	2
TAP	56	192	1
TAP	56	288	1
TAP	57	0	0
TAP	57	0	7
TAP	57	96	0
TAP	57	96	7
XTP	57	192	1
XTP	57	192	6
TTP	58	0	0	C	1	L1
BRK	61	0	7
TTP	62	96	0	B	0	L1
TTP	62	288	1	B	0	L1
TTP	63	96	2	B	0	L1
TTP	63	288	3	B	0	L1
TTP	64	96	4	B	0	L1
TTP	64	288	5	B	0	L1
TTP	65	96	1	B	0	L1
TTP	65	96	6	B	0	L1
XST	66	0	3
SXR	66	0	3	96	480	0
XST	66	0	4
SXL	66	0	4	96	480	7
XST	68	0	0
SXL	68	0	0	96	480	3
XST	68	0	7
SXR	68	0	7	96	480	4
XST	70	0	2
SLL	70	0	2	96	384	3
XST	70	0	5
SLR	70	0	5	96	384	4
XST	72	0	1
SLR	72	0	1	96	384	0
XST	72	0	6
SLL	72	0	6	96	384	7
TAP	74	0	1
TAP	74	96	1
TAP	74	192	0
TAP	74	288	0
TAP	75	0	7
TAP	75	96	7
TAP	75	192	0
TAP	75	192	6
TAP	76	0	5
TAP	76	96	5
TAP	76	192	4
TAP	76	288	4
TAP	77	0	3
TAP	77	96	3
TAP	77	192	2
TAP	77	192	4
TAP	78	0	1
TAP	78	96	1
TAP	78	192	0
TAP	78	288	0
TAP	79	0	7
TAP	79	96	7
TAP	79	192	6
TAP	79	288	6
TAP	80	0	5
TAP	80	48	5
TAP	80	96	5
TAP	80	192	3
TAP	80	240	3
TAP	80	288	3
BRK	81	0	2
BRK	81	0	5
TAP	82	0	1
TAP	82	96	0
TAP	82	96	1
TAP	82	192	6
TAP	82	288	6
TAP	82	288	7
TAP	83	0	5
TAP	83	96	4
TAP	83	192	3
TAP	83	192	5
TAP	84	0	2
TAP	84	96	2
TAP	84	96	3
TAP	84	192	5
TAP	84	288	4
TAP	84	288	5
TAP	85	0	6
TAP	85	48	6
TAP	85	96	6
TAP	85	192	0
TAP	85	240	0
TAP	85	288	0
TAP	86	0	6
TAP	86	96	6
TAP	86	96	7
TAP	86	192	1
TAP	86	288	0
TAP	86	288	1
TAP	87	0	2
TAP	87	96	3
TAP	87	192	2
TAP	87	192	4
TAP	88	0	5
XTP	88	96	5
TAP	88	192	2
XTP	88	288	2
TAP	89	0	4
XTP	89	96	3
XTP	89	96	4
XTP	89	192	2
XTP	89	192	5
TAP	90	0	6
TAP	90	96	6
TAP	90	96	7
TAP	90	192	1
TAP	90	288	0
TAP	90	288	1
TAP	91	0	2
TAP	91	96	3
TAP	91	192	2
TAP	91	192	4
TAP	92	0	5
TAP	92	96	4
TAP	92	96	5
TAP	92	192	2
TAP	92	288	2
TAP	92	288	3
TAP	93	0	1
TAP	93	48	1
TAP	93	96	1
TAP	93	192	7
TAP	93	240	7
TAP	93	288	7
TAP	94	0	1
TAP	94	96	0
TAP	94	96	1
TAP	94	192	6
TAP	94	288	6
TAP	94	288	7
TAP	95	0	5
TAP	95	96	4
TAP	95	192	3
TAP	95	192	5
TAP	96	0	2
TAP	96	96	2
TAP	96	192	5
TAP	96	288	5
TAP	97	0	3
TAP	97	0	4
TAP	97	96	3
TAP	97	96	4
BRK	97	192	2
BRK	97	192	5
TAP	98	0	6
TAP	98	96	6
TAP	98	96	7
TAP	98	192	1
TAP	98	288	0
TAP	98	288	1
TAP	99	0	2
TAP	99	96	2
TAP	99	96	3
TAP	99	192	5
TAP	99	288	4
TAP	99	288	5
TAP	100	0	6
TAP	100	96	6
TAP	100	96	7
TAP	100	192	5
TAP	100	288	4
TAP	100	288	5
TAP	101	0	3
TAP	101	48	3
TAP	101	96	3
TAP	101	192	4
TAP	101	240	4
TAP	101	288	4
TAP	102	0	2
TAP	102	96	2
TAP	102	96	3
TAP	102	192	5
TAP	102	288	4
TAP	102	288	5
TAP	103	0	6
TAP	103	96	6
TAP	103	96	7
TAP	103	192	1
TAP	103	288	0
TAP	103	288	1
TAP	104	0	7
TAP	104	96	7
TAP	104	192	0
TAP	104	288	0
TAP	105	0	0
TAP	105	0	7
TAP	105	96	0
TAP	105	96	7
TAP	105	192	1
TAP	105	192	6
TAP	106	0	4
TAP	106	0	5
TAP	106	96	4
TAP	106	96	5
TAP	106	192	3
TAP	106	192	6
TAP	106	288	3
TAP	106	288	6
TAP	107	0	2
TAP	107	0	5
TAP	107	96	2
TAP	107	96	5
XTP	107	192	1
XTP	107	192	4
TAP	108	0	2
TAP	108	0	3
TAP	108	96	2
TAP	108	96	3
TAP	108	192	1
TAP	108	192	4
TAP	108	288	1
TAP	108	288	4
XTP	109	0	2
XTP	109	0	5
XTP	109	96	2
XTP	109	96	5
XTP	109	192	3
XTP	109	192	6
TAP	110	0	5
TAP	110	96	5
TAP	110	192	4
TAP	110	288	4
TAP	111	0	3
TAP	111	96	3
TAP	111	192	2
TAP	111	288	2
TAP	112	0	1
TAP	112	48	1
TAP	112	96	1
TAP	112	192	0
TAP	112	240	0
TAP	112	288	0
STR	113	0	0
SI_	113	0	0	96	144	4
STR	113	0	7
SI_	113	0	7	96	144	3
TTP	114	0	3	E	0	L1
TTP	114	0	5	E	0	L1
TTP	115	0	2	B	0	L1
TTP	115	0	5	B	0	L1
TTP	116	0	1	B	0	L1
TTP	116	0	6	B	0	L1
TTP	117	0	1	E	0	L1
TTP	117	0	7	E	0	L1
XTP	118	0	0
XTP	118	0	7
XTP	118	96	0
XTP	118	96	7
TAP	118	192	1
TAP	118	192	6
TAP	118	288	1
TAP	118	288	6
TAP	119	0	2
TAP	119	0	5
TAP	119	96	2
TAP	119	96	5
TAP	119	192	3
TAP	119	192	4
TAP	119	288	3
TAP	119	288	4
TAP	120	0	2
TAP	120	48	2
TAP	120	96	2
TAP	120	192	1
TAP	120	240	1
TAP	120	288	1
TAP	121	0	0
TAP	121	48	0
TAP	121	96	0
TAP	121	192	7
TAP	121	240	7
TAP	121	288	7
BRK	122	0	1
BRK	122	0	6

T_REC_TAP	347
T_REC_BRK	13
T_REC_XTP	48
T_REC_HLD	9
T_REC_XHO	0
T_REC_STR	10
T_REC_BST	2
T_REC_XST	10
T_REC_TTP	17
T_REC_THO	0
T_REC_SLD	22
T_REC_ALL	478
T_NUM_TAP	432
T_NUM_BRK	15
T_NUM_HLD	9
T_NUM_SLD	22
T_NUM_ALL	478
T_JUDGE_TAP	447
T_JUDGE_HLD	64
T_JUDGE_SLD	22
T_JUDGE_ALL	533
TTM_EACHPAIRS	112
TTM_SCR_TAP	216000
TTM_SCR_BRK	39000
TTM_SCR_HLD	9000
TTM_SCR_SLD	33000
TTM_SCR_ALL	297000
TTM_SCR_S	286650
TTM_SCR_SS	295500
TTM_RAT_ACV	10050

