VERSION	0.00.00	1.03.00
FES_MODE	0
BPM_DEF	190.000	190.000	190.000	190.000
MET_DEF	4	4
RESOLUTION	384
CLK_DEF	384
COMPATIBLE_CODE	MA2

BPM	0	0	190.000
MET	0	0	4	4

TAP	6	0	0
TAP	7	0	0
TAP	8	0	7
XTP	9	0	7
TAP	10	0	6
TAP	11	0	5
TAP	12	0	4
TAP	13	0	3
XTP	14	0	2
XTP	15	0	1
XTP	16	0	0
BRK	17	0	7
TAP	18	0	0
TAP	18	192	0
TAP	19	0	0
TAP	20	0	1
TAP	20	192	1
TAP	21	0	1
TAP	22	0	2
TAP	22	192	2
TAP	23	0	2
TAP	24	0	3
TAP	24	192	3
XTP	25	0	3
XTP	25	0	4
TAP	26	0	4
TAP	26	192	4
TAP	27	0	4
TAP	28	0	5
TAP	28	192	5
TAP	29	0	5
TAP	30	0	6
TAP	30	192	6
TAP	31	0	6
TAP	32	0	7
TAP	32	192	7
XTP	33	0	0
XTP	33	0	7
TAP	34	0	7
TAP	34	192	7
TAP	35	0	6
TAP	36	0	5
TAP	36	192	5
TAP	37	0	4
TAP	38	0	3
TAP	38	192	3
TAP	39	0	2
TAP	40	0	1
TAP	40	192	1
XTP	41	0	0
TAP	42	0	0
TAP	42	192	0
TAP	43	0	1
TAP	44	0	2
TAP	44	192	2
XTP	45	0	3
TAP	46	0	4
TAP	46	192	4
TAP	47	0	4
TAP	47	0	5
TAP	48	0	3
TAP	48	192	3
BRK	49	0	3
BRK	49	0	4
HLD	50	0	5	384
HLD	52	0	4	384
HLD	54	0	3	384
HLD	56	0	2	384
XTP	58	0	3
XTP	58	0	4
TTP	62	0	4	B	0	L1
TTP	63	0	3	B	0	L1
TTP	64	0	5	B	0	L1
TTP	65	0	0	C	0	L1
XST	66	0	0
SCR	66	0	0	96	480	3
XTP	69	0	4
XST	70	0	4
SCR	70	0	4	96	480	7
XTP	73	0	7
XTP	74	0	7
TAP	74	96	7
TAP	74	192	7
TAP	75	0	6
TAP	75	192	6
TAP	75	192	7
TAP	76	0	5
TAP	76	96	5
TAP	76	192	5
XTP	77	0	4
XTP	77	192	4
XTP	77	192	5
TAP	78	0	3
TAP	78	96	3
TAP	78	192	3
TAP	79	0	3
TAP	79	0	4
TAP	79	192	3
TAP	79	192	4
TAP	80	0	2
TAP	80	192	1
XTP	81	0	0
XTP	81	0	7
BRK	82	0	0
TAP	82	96	0
TAP	82	192	0
TAP	83	0	1
TAP	83	96	1
TAP	83	192	1
TAP	84	0	2
TAP	84	96	2
TAP	84	192	2
TAP	85	0	3
TAP	85	96	4
XTP	85	192	3
TAP	86	0	4
TAP	86	96	4
TAP	86	192	4
TAP	87	0	5
TAP	87	96	5
TAP	87	192	5
TAP	88	0	6
TAP	88	96	6
TAP	88	192	6
TAP	89	0	7
TAP	89	96	7
XTP	89	192	0
XTP	89	192	7
TAP	90	0	7
TAP	90	96	7
TAP	90	192	7
TAP	91	0	6
TAP	91	96	6
TAP	91	192	6
TAP	92	0	5
TAP	92	96	5
TAP	92	192	5
TAP	93	0	4
TAP	93	96	3
XTP	93	192	4
TAP	94	0	2
TAP	94	96	2
TAP	94	192	2
TAP	95	0	1
TAP	95	96	1
TAP	95	192	1
TAP	96	0	0
TAP	96	96	0
TAP	96	192	0
BRK	97	0	0
BRK	97	0	7
TAP	98	0	1
TAP	98	96	1
TAP	98	192	1
TAP	99	0	2
TAP	99	96	2
TAP	99	192	2
TAP	99	192	3
TAP	100	0	4
TAP	100	96	4
TAP	100	192	4
TAP	101	0	5
TAP	101	96	5
TAP	101	192	4
TAP	101	192	5
TAP	102	0	6
TAP	102	96	6
TAP	102	192	6
TAP	103	0	7
TAP	103	96	7
TAP	103	192	0
TAP	103	192	7
HLD	104	0	0	192
HLD	104	0	7	192
XTP	105	0	0
XTP	105	0	7
BRK	105	192	1
BRK	105	192	6
TAP	106	0	5
TAP	106	96	5
TAP	106	192	5
TAP	106	288	5
TAP	107	0	4
TAP	107	96	4
XTP	107	192	4
TAP	108	0	3
TAP	108	96	3
TAP	108	192	3
TAP	108	288	3
TAP	109	0	2
TAP	109	96	2
XTP	109	192	2
XHO	110	0	0	192
XHO	110	0	1	192
XHO	111	0	6	192
XHO	111	0	7	192
TAP	112	0	0
TAP	112	96	0
TAP	112	192	0
TAP	113	0	0
TAP	113	0	7
TAP	113	96	0
TAP	113	96	7
XTP	113	192	0
XTP	113	192	7
HLD	114	0	1	192
TAP	115	0	2
TAP	115	192	2
TAP	115	192	3
HLD	116	0	4	192
TAP	117	0	5
TAP	117	192	4
TAP	117	192	5
HLD	118	0	6	192
TAP	119	0	7
TAP	119	192	0
TAP	119	192	7
XHO	120	0	0	192
XHO	120	0	7	192
TAP	121	0	0
TAP	121	0	7
TAP	121	96	0
TAP	121	96	7
TAP	121	192	0
TAP	121	192	7
BRK	122	0	1
BRK	122	0	6

T_REC_TAP	164
T_REC_BRK	10
T_REC_XTP	30
T_REC_HLD	9
T_REC_XHO	6
T_REC_STR	0
T_REC_BST	0
T_REC_XST	2
T_REC_TTP	4
T_REC_THO	0
T_REC_SLD	2
T_REC_ALL	227
T_NUM_TAP	200
T_NUM_BRK	10
T_NUM_HLD	15
T_NUM_SLD	2
T_NUM_ALL	227
T_JUDGE_TAP	210
T_JUDGE_HLD	76
T_JUDGE_SLD	2
T_JUDGE_ALL	288
TTM_EACHPAIRS	31
TTM_SCR_TAP	100000
TTM_SCR_BRK	26000
TTM_SCR_HLD	15000
TTM_SCR_SLD	3000
TTM_SCR_ALL	144000
TTM_SCR_S	138750
TTM_SCR_SS	143000
TTM_RAT_ACV	10069

