VERSION	0.00.00	1.03.00
FES_MODE	0
BPM_DEF	175.000	175.000	260.000	175.000
MET_DEF	4	4
RESOLUTION	384
CLK_DEF	384
COMPATIBLE_CODE	MA2

BPM	0	0	175.000
BPM	105	0	260.000
MET	0	0	4	4
MET	105	0	4	2
MET	105	192	4	4

XST	1	0	3
SCL	1	0	3	96	1344	4
XHO	1	0	4	192
TAP	1	288	6
STR	2	0	6
SUL	2	0	6	96	192	5
HLD	3	0	3	192
TAP	3	288	2
STR	4	0	1
SUR	4	0	1	96	192	2
HLD	5	0	3	192
XST	5	0	4
SCR	5	0	4	96	1344	3
TAP	5	288	0
STR	6	0	0
SUL	6	0	0	96	192	7
HLD	7	0	4	192
TAP	7	288	7
STR	8	0	7
SUR	8	0	7	96	192	0
XHO	9	0	3	192
XTP	9	0	4
TTP	9	192	1	B	0	M1
TTP	9	192	2	B	0	M1
TAP	9	336	3
TAP	9	336	4
TAP	10	48	3
HLD	10	48	4	144
TTP	10	192	5	B	0	M1
TTP	10	192	6	B	0	M1
HLD	11	0	3	192
TAP	11	0	4
TTP	11	192	1	B	0	M1
TTP	11	192	2	B	0	M1
TAP	11	336	3
TAP	11	336	4
TAP	12	48	3
TAP	12	48	4
TAP	12	96	3
HLD	12	96	4	96
TTP	12	192	5	B	0	M1
TTP	12	192	6	B	0	M1
HLD	13	0	2	192
TAP	13	0	3
TTP	13	192	1	B	0	M1
TTP	13	192	2	B	0	M1
TAP	13	336	3
TAP	13	336	4
TAP	14	48	4
HLD	14	48	5	144
TTP	14	192	5	B	0	M1
TTP	14	192	6	B	0	M1
HLD	15	0	2	192
TAP	15	0	3
TTP	15	192	1	B	0	M1
TTP	15	192	2	B	0	M1
TAP	15	336	3
TAP	15	336	4
TAP	16	48	4
TAP	16	48	5
TAP	16	96	4
HLD	16	96	5	96
TTP	16	192	5	B	0	M1
TTP	16	192	6	B	0	M1
TAP	16	288	3
TAP	16	312	4
TAP	16	336	3
TAP	16	360	4
THO	17	0	0	672	C	0	M1
TTP	17	96	0	E	0	M1
TTP	17	192	1	E	0	M1
TTP	17	288	7	E	0	M1
TTP	18	0	2	E	0	M1
TTP	18	96	6	E	0	M1
TTP	18	192	3	E	0	M1
TTP	18	288	5	E	0	M1
STR	19	96	4
SF_	19	96	4	96	192	0
XTP	20	144	2
XTP	20	144	6
XTP	20	216	0
XTP	20	216	4
BRK	21	0	3
BRK	21	0	7
HLD	21	96	5	72
HLD	21	168	3	72
TAP	21	240	4
TAP	21	288	4
TAP	22	0	2
TAP	22	48	3
HLD	22	96	2	72
HLD	22	168	4	72
TAP	22	240	3
TAP	22	288	3
XTP	23	0	4
XTP	23	0	5
TAP	23	48	4
HLD	23	96	6	72
HLD	23	168	4	72
TAP	23	240	5
TAP	23	288	5
TAP	24	0	3
TAP	24	48	2
HLD	24	96	1	72
HLD	24	168	3	72
TAP	24	240	2
TAP	24	288	3
XTP	24	336	4
XTP	25	0	3
XTP	25	0	5
TAP	25	48	6
HLD	25	96	6	72
HLD	25	168	5	72
TAP	25	240	4
TAP	25	288	3
TAP	25	336	2
TAP	26	0	1
TAP	26	48	0
HLD	26	96	1	72
HLD	26	168	2	72
TAP	26	240	3
TAP	26	288	4
XTP	26	336	5
XTP	27	0	6
XTP	27	0	7
TAP	27	48	7
HLD	27	96	6	72
HLD	27	168	5	72
TAP	27	240	4
TAP	27	288	3
TAP	27	336	2
STR	28	0	1
SI_	28	0	1	96	48	5
STR	28	96	7
SI_	28	96	7	96	48	3
TAP	28	192	0
BRK	28	288	1
BRK	28	288	6
TAP	29	0	2
TAP	29	0	5
TAP	29	48	4
HLD	29	96	3	72
HLD	29	168	2	72
TAP	29	240	1
TAP	29	288	0
TAP	29	336	7
TAP	30	0	6
TAP	30	48	5
HLD	30	96	4	72
TAP	30	96	6
HLD	30	168	3	72
TAP	30	240	2
TAP	30	288	1
TAP	30	336	0
TAP	31	0	1
TAP	31	48	2
TAP	31	96	3
HLD	31	96	4	72
HLD	31	168	5	72
TAP	31	240	6
TAP	31	288	7
TAP	31	336	0
TAP	32	0	1
TAP	32	48	2
TAP	32	96	1
HLD	32	96	3	72
HLD	32	168	4	72
TAP	32	240	5
BRK	32	288	3
BRK	32	288	6
TAP	33	0	3
TAP	33	0	4
TAP	33	48	5
TAP	33	72	4
HLD	33	96	5	48
TAP	33	144	2
TAP	33	168	3
HLD	33	192	2	48
TAP	33	240	5
TAP	33	264	4
HLD	33	288	5	48
TAP	33	336	2
TAP	33	360	3
HLD	34	0	2	48
TAP	34	48	6
TAP	34	72	4
HLD	34	96	6	48
TAP	34	144	1
TAP	34	168	3
HLD	34	192	1	48
TAP	34	240	6
TAP	34	264	4
HLD	34	288	6	48
TAP	34	336	1
TAP	34	360	3
TAP	35	0	1
TAP	35	48	1
TAP	35	96	0
TAP	35	96	1
TAP	35	144	1
TAP	35	192	1
TAP	35	192	2
TAP	35	240	1
TAP	35	288	1
TAP	35	288	4
TAP	35	336	1
TAP	36	0	1
TAP	36	0	6
TAP	36	48	6
TAP	36	96	6
TAP	36	96	7
TAP	36	144	6
TAP	36	192	5
TAP	36	192	6
TAP	36	240	6
TAP	36	288	3
TAP	36	288	6
TAP	36	336	6
XTP	37	0	0
TAP	37	24	7
TAP	37	48	0
TAP	37	72	7
TAP	37	96	0
TAP	37	120	7
TAP	37	144	0
TAP	37	168	7
XTP	37	192	0
TAP	37	204	1
TAP	37	216	2
TAP	37	228	3
TAP	37	240	4
TAP	37	252	5
TAP	37	264	6
TAP	37	276	7
XTP	37	288	0
TAP	37	300	1
TAP	37	312	2
TAP	37	324	3
TAP	37	336	4
TAP	37	348	5
TAP	37	360	6
TAP	37	372	7
BRK	38	0	0
XHO	38	0	4	384
TTP	39	0	0	C	1	M1
TTP	39	144	3	B	0	M1
TTP	39	144	3	E	0	M1
TTP	39	144	4	B	0	M1
TTP	39	144	5	E	0	M1
TTP	39	150	2	B	0	M1
TTP	39	150	5	B	0	M1
TTP	39	156	0	C	1	M1
TTP	39	162	1	B	0	M1
TTP	39	162	6	B	0	M1
TTP	39	168	1	E	0	M1
TTP	39	168	7	E	0	M1
TAP	40	96	4
TAP	40	96	6
TAP	40	168	1
TAP	40	168	3
TAP	40	240	0
TAP	40	240	7
BRK	40	288	1
BRK	40	288	6
XTP	41	0	2
TAP	41	24	3
TAP	41	48	2
TAP	41	72	3
XHO	41	96	2	48
TAP	41	144	0
TAP	41	168	1
XTP	41	192	0
TAP	41	216	1
HLD	41	240	0	48
XTP	41	288	2
TAP	41	336	3
TAP	41	336	4
XTP	42	0	5
TAP	42	24	4
TAP	42	48	5
TAP	42	72	4
XHO	42	96	5	48
TAP	42	144	7
TAP	42	168	6
XTP	42	192	7
TAP	42	216	6
HLD	42	240	7	48
XTP	42	288	5
TAP	42	336	3
TAP	42	336	4
XTP	43	0	2
TAP	43	24	3
TAP	43	48	2
TAP	43	72	3
XHO	43	96	2	48
TAP	43	144	0
TAP	43	168	1
XTP	43	192	0
TAP	43	216	1
HLD	43	240	0	48
XTP	43	288	2
TAP	43	336	3
TAP	43	336	4
XTP	44	0	5
TAP	44	24	4
TAP	44	48	5
TAP	44	72	4
XHO	44	96	5	48
TAP	44	144	2
TAP	44	168	3
TAP	44	216	5
TAP	44	240	4
XTP	44	288	2
XTP	44	288	4
XTP	44	336	3
XTP	44	336	5
XTP	45	0	5
TAP	45	24	4
TAP	45	48	5
TAP	45	72	4
XHO	45	96	5	48
TAP	45	144	7
TAP	45	168	6
XTP	45	192	7
TAP	45	216	6
HLD	45	240	7	48
XTP	45	288	5
TAP	45	336	3
TAP	45	336	4
XTP	46	0	2
TAP	46	24	3
TAP	46	48	2
TAP	46	72	3
XHO	46	96	2	48
TAP	46	144	0
TAP	46	168	1
XTP	46	192	0
TAP	46	216	1
HLD	46	240	0	48
XTP	46	288	2
TAP	46	336	3
TAP	46	336	4
XTP	47	0	5
TAP	47	24	4
TAP	47	48	5
TAP	47	72	4
XHO	47	96	5	48
TAP	47	144	7
TAP	47	168	6
XTP	47	192	7
TAP	47	216	6
HLD	47	240	7	48
XTP	47	288	5
TAP	47	336	3
TAP	47	336	4
XTP	48	0	2
TAP	48	24	3
TAP	48	48	2
TAP	48	72	3
TAP	48	96	2
TAP	48	144	5
TAP	48	168	4
TAP	48	216	2
TAP	48	240	3
BRK	48	288	2
BRK	48	288	5
XST	49	0	6
SI_	49	0	6	96	24	4
TAP	49	24	7
TAP	49	48	6
TAP	49	72	7
XTP	49	96	6
STR	49	144	2
SI_	49	144	2	96	24	0
TAP	49	168	3
XTP	49	192	2
TAP	49	216	3
TAP	49	240	2
XTP	49	288	7
TAP	49	336	6
TAP	49	336	7
XST	50	0	5
SI_	50	0	5	96	24	7
TAP	50	24	4
TAP	50	48	5
TAP	50	72	4
XTP	50	96	5
STR	50	144	1
SI_	50	144	1	96	24	3
TAP	50	168	0
XTP	50	192	1
TAP	50	216	0
TAP	50	240	1
XTP	50	288	4
TAP	50	336	4
TAP	50	336	5
XST	51	0	6
SI_	51	0	6	96	24	4
TAP	51	24	7
TAP	51	48	6
TAP	51	72	7
XTP	51	96	6
STR	51	144	2
SI_	51	144	2	96	24	0
TAP	51	168	3
XTP	51	192	2
TAP	51	216	3
TAP	51	240	2
XTP	51	288	7
TAP	51	336	6
TAP	51	336	7
XTP	52	0	5
TAP	52	24	4
TAP	52	48	5
TAP	52	72	4
XTP	52	96	5
TAP	52	144	1
TAP	52	168	0
TAP	52	216	6
TAP	52	240	7
TTP	52	288	0	C	1	M1
TTP	52	288	2	E	0	M1
TTP	52	288	6	E	0	M1
XST	53	0	1
SI_	53	0	1	96	24	3
TAP	53	24	0
TAP	53	48	1
TAP	53	72	0
XTP	53	96	1
STR	53	144	5
SI_	53	144	5	96	24	7
TAP	53	168	4
XTP	53	192	5
TAP	53	216	4
TAP	53	240	5
XTP	53	288	0
TAP	53	336	0
TAP	53	336	1
XST	54	0	2
SI_	54	0	2	96	24	0
TAP	54	24	3
TAP	54	48	2
TAP	54	72	3
XTP	54	96	2
STR	54	144	6
SI_	54	144	6	96	24	4
TAP	54	168	7
XTP	54	192	6
TAP	54	216	7
TAP	54	240	6
XTP	54	288	3
TAP	54	336	2
TAP	54	336	3
XST	55	0	1
SI_	55	0	1	96	24	3
TAP	55	24	0
TAP	55	48	1
TAP	55	72	0
XTP	55	96	1
STR	55	144	5
SI_	55	144	5	96	24	7
TAP	55	168	4
XTP	55	192	5
TAP	55	216	4
TAP	55	240	5
XTP	55	288	0
TAP	55	336	0
TAP	55	336	1
TAP	56	0	2
TAP	56	24	3
TAP	56	48	2
TAP	56	72	3
TAP	56	96	2
TAP	56	144	6
TAP	56	168	7
TAP	56	216	1
TAP	56	240	0
BRK	56	288	1
BRK	56	288	6
HLD	57	0	4	96
TAP	57	48	3
TAP	57	96	2
HLD	57	144	1	96
TAP	57	192	2
TAP	57	240	3
BRK	57	288	1
BRK	57	288	4
TTP	58	0	7	E	0	M1
TTP	58	48	6	E	0	M1
TTP	58	96	3	B	0	M1
TTP	58	96	5	E	0	M1
TTP	58	144	1	E	0	M1
TTP	58	192	2	E	0	M1
TTP	58	240	3	E	0	M1
TTP	58	240	4	B	0	M1
TTP	58	288	0	C	1	M1
HLD	59	0	6	96
TAP	59	48	7
TAP	59	96	0
HLD	59	144	1	96
TAP	59	192	0
TAP	59	240	7
TAP	59	288	6
TAP	59	336	5
STR	60	0	4
SSR	60	0	4	96	96	0
STR	60	0	6
SSL	60	0	6	96	96	2
BRK	60	288	1
BRK	60	288	5
HLD	61	0	3	96
TAP	61	48	4
TAP	61	96	5
HLD	61	144	6	96
TAP	61	192	5
TAP	61	240	4
BRK	61	288	3
BRK	61	288	6
TTP	62	0	1	E	0	M1
TTP	62	48	2	E	0	M1
TTP	62	96	3	E	0	M1
TTP	62	96	4	B	0	M1
TTP	62	144	7	E	0	M1
TTP	62	192	6	E	0	M1
TTP	62	240	3	B	0	M1
TTP	62	240	5	E	0	M1
TTP	62	288	0	C	1	M1
XTP	63	0	0
XTP	63	16	7
XTP	63	32	0
XTP	63	48	7
XTP	63	64	0
XTP	63	80	7
XTP	63	96	1
XTP	63	112	2
XTP	63	128	3
XTP	63	144	6
XTP	63	160	5
XTP	63	176	4
THO	63	192	0	96	C	1	M1
TTP	63	288	1	B	0	M1
TTP	63	288	6	B	0	M1
XTP	64	96	0
XTP	64	96	7
TAP	64	144	2
TAP	64	168	3
TAP	64	216	5
TAP	64	240	4
BRK	64	288	1
BRK	64	288	6
XTP	65	0	2
XHO	65	0	7	48
TTP	65	12	3	E	0	M1
TTP	65	24	3	B	0	M1
TTP	65	36	4	B	0	M1
TTP	65	48	5	E	0	M1
XTP	65	96	2
XHO	65	96	7	48
TTP	65	108	3	E	0	M1
TTP	65	120	3	B	0	M1
TTP	65	132	4	B	0	M1
TTP	65	144	5	E	0	M1
XTP	65	192	2
XHO	65	192	7	48
TTP	65	204	3	E	0	M1
TTP	65	216	3	B	0	M1
TTP	65	228	4	B	0	M1
TTP	65	240	5	E	0	M1
XTP	65	288	2
XHO	65	288	7	48
TTP	65	300	3	E	0	M1
TTP	65	312	3	B	0	M1
TTP	65	324	4	B	0	M1
TTP	65	336	5	E	0	M1
XTP	66	0	2
XHO	66	0	6	48
TTP	66	12	3	E	0	M1
TTP	66	24	3	B	0	M1
TTP	66	36	4	B	0	M1
TTP	66	48	5	E	0	M1
XTP	66	96	2
XHO	66	96	7	48
TTP	66	108	3	E	0	M1
TTP	66	120	3	B	0	M1
TTP	66	132	4	B	0	M1
TTP	66	144	5	E	0	M1
XTP	66	192	2
XHO	66	192	6	48
TTP	66	204	3	E	0	M1
TTP	66	216	3	B	0	M1
TTP	66	228	4	B	0	M1
TTP	66	240	5	E	0	M1
BRK	66	288	2
BRK	66	288	7
XHO	67	0	0	48
XTP	67	0	5
TTP	67	12	5	E	0	M1
TTP	67	24	4	B	0	M1
TTP	67	36	3	B	0	M1
TTP	67	48	3	E	0	M1
XHO	67	96	1	48
XTP	67	96	5
TTP	67	108	5	E	0	M1
TTP	67	120	4	B	0	M1
TTP	67	132	3	B	0	M1
TTP	67	144	3	E	0	M1
XHO	67	192	0	48
XTP	67	192	5
TTP	67	204	5	E	0	M1
TTP	67	216	4	B	0	M1
TTP	67	228	3	B	0	M1
TTP	67	240	3	E	0	M1
XHO	67	288	1	48
XTP	67	288	5
TTP	67	300	5	E	0	M1
TTP	67	312	4	B	0	M1
TTP	67	324	3	B	0	M1
TTP	67	336	3	E	0	M1
XTP	68	0	0
XTP	68	0	2
XTP	68	96	5
XTP	68	96	7
TAP	68	192	3
TAP	68	216	4
TAP	68	240	3
BRK	68	288	1
BRK	68	288	6
XHO	69	0	0	48
XTP	69	0	5
TTP	69	12	5	E	0	M1
TTP	69	24	4	B	0	M1
TTP	69	36	3	B	0	M1
TTP	69	48	3	E	0	M1
XHO	69	96	0	48
XTP	69	96	5
TTP	69	108	5	E	0	M1
TTP	69	120	4	B	0	M1
TTP	69	132	3	B	0	M1
TTP	69	144	3	E	0	M1
XHO	69	192	0	48
XTP	69	192	5
TTP	69	204	5	E	0	M1
TTP	69	216	4	B	0	M1
TTP	69	228	3	B	0	M1
TTP	69	240	3	E	0	M1
XHO	69	288	0	48
XTP	69	288	5
TTP	69	300	5	E	0	M1
TTP	69	312	4	B	0	M1
TTP	69	324	3	B	0	M1
TTP	69	336	3	E	0	M1
XHO	70	0	1	48
XTP	70	0	5
TTP	70	12	5	E	0	M1
TTP	70	24	4	B	0	M1
TTP	70	36	3	B	0	M1
TTP	70	48	3	E	0	M1
XHO	70	96	0	48
XTP	70	96	5
TTP	70	108	5	E	0	M1
TTP	70	120	4	B	0	M1
TTP	70	132	3	B	0	M1
TTP	70	144	3	E	0	M1
XHO	70	192	1	48
XTP	70	192	5
TTP	70	204	5	E	0	M1
TTP	70	216	4	B	0	M1
TTP	70	228	3	B	0	M1
TTP	70	240	3	E	0	M1
BRK	70	288	0
BRK	70	288	5
XTP	71	0	2
XHO	71	0	7	48
TTP	71	12	3	E	0	M1
TTP	71	24	3	B	0	M1
TTP	71	36	4	B	0	M1
TTP	71	48	5	E	0	M1
XTP	71	96	2
XHO	71	96	7	48
TTP	71	108	3	E	0	M1
TTP	71	120	3	B	0	M1
TTP	71	132	4	B	0	M1
TTP	71	144	5	E	0	M1
XTP	71	192	6
XTP	71	216	1
XTP	71	240	6
XTP	71	288	2
XTP	71	288	5
TTP	71	336	3	B	0	M1
TTP	71	336	3	E	0	M1
TTP	71	336	4	B	0	M1
TTP	71	336	5	E	0	M1
TTP	71	342	2	B	0	M1
TTP	71	342	5	B	0	M1
TTP	71	348	0	C	1	M1
TTP	71	354	1	B	0	M1
TTP	71	354	6	B	0	M1
TTP	71	360	1	E	0	M1
TTP	71	360	7	E	0	M1
BRK	72	288	1
BRK	72	288	6
XTP	73	0	6
TAP	73	24	4
TAP	73	48	5
TAP	73	72	3
XTP	73	96	6
TAP	73	120	4
TAP	73	144	5
TAP	73	168	3
XTP	73	192	6
TAP	73	216	4
TAP	73	240	5
TAP	73	264	3
XTP	73	288	6
TAP	73	312	4
TAP	73	336	5
TAP	73	360	3
XTP	74	0	6
TAP	74	24	4
TAP	74	48	5
TAP	74	72	3
XTP	74	96	6
TAP	74	120	4
TAP	74	144	5
TAP	74	168	3
XTP	74	192	6
TAP	74	216	4
TAP	74	240	5
TAP	74	264	3
XTP	74	288	6
TAP	74	312	4
TAP	74	336	5
TAP	74	360	3
XTP	75	0	5
TAP	75	24	4
TAP	75	48	6
TAP	75	72	3
XTP	75	96	5
TAP	75	120	4
TAP	75	144	6
TAP	75	168	3
XTP	75	192	5
TAP	75	216	4
TAP	75	240	6
TAP	75	264	3
XTP	75	288	5
TAP	75	312	4
TAP	75	336	6
TAP	75	360	3
XTP	76	0	5
TAP	76	24	4
TAP	76	48	6
TAP	76	72	3
XTP	76	96	5
TAP	76	120	4
TAP	76	144	6
TAP	76	168	3
XTP	76	192	5
TAP	76	216	4
TAP	76	240	5
TAP	76	264	4
BRK	76	288	3
BRK	76	288	6
XTP	77	0	1
TAP	77	24	3
TAP	77	48	2
TAP	77	72	4
XTP	77	96	1
TAP	77	120	3
TAP	77	144	2
TAP	77	168	4
XTP	77	192	1
TAP	77	216	3
TAP	77	240	2
TAP	77	264	4
XTP	77	288	1
TAP	77	312	3
TAP	77	336	2
TAP	77	360	4
XTP	78	0	2
TAP	78	24	3
TAP	78	48	1
TAP	78	72	4
XTP	78	96	2
TAP	78	120	3
TAP	78	144	1
TAP	78	168	4
XTP	78	192	2
TAP	78	216	3
TAP	78	240	1
TAP	78	264	4
XTP	78	288	2
TAP	78	312	3
TAP	78	336	1
TAP	78	360	4
XTP	79	0	2
TAP	79	24	4
TAP	79	48	1
TAP	79	72	3
XTP	79	96	2
TAP	79	120	4
TAP	79	144	1
TAP	79	168	3
XTP	79	192	2
TAP	79	216	4
TAP	79	240	1
TAP	79	264	3
XTP	79	288	2
TAP	79	312	4
TAP	79	336	1
TAP	79	360	3
XTP	80	0	2
XTP	80	0	3
XTP	80	48	2
XTP	80	48	3
BRK	80	96	1
BRK	80	96	4
XTP	80	192	0
XTP	80	192	7
XTP	80	240	0
XTP	80	240	7
BRK	80	288	1
BRK	80	288	6
XTP	81	0	3
XST	81	0	4
SCR	81	0	4	96	1248	3
TTP	82	0	3	B	0	M1
TTP	82	0	4	B	0	M1
TTP	82	192	0	E	0	M1
TTP	82	288	0	C	0	M1
TTP	83	0	4	E	0	M1
TTP	83	192	1	B	0	M1
TTP	83	192	2	B	0	M1
TTP	84	0	0	B	0	M1
TTP	84	0	7	B	0	M1
TTP	84	192	5	B	0	M1
TTP	84	192	6	B	0	M1
XST	85	0	3
SCL	85	0	3	96	1056	4
XTP	85	0	4
TTP	85	192	3	B	0	M1
TTP	85	192	4	B	0	M1
TTP	86	0	1	B	0	M1
TTP	86	0	2	B	0	M1
TTP	86	192	0	B	0	M1
TTP	86	192	7	B	0	M1
TTP	87	0	5	B	0	M1
TTP	87	0	6	B	0	M1
THO	88	0	0	384	C	1	M1
TTP	89	0	2	E	0	M1
TTP	89	0	6	E	0	M1
TTP	89	96	0	B	0	M1
TTP	89	192	7	B	0	M1
TTP	89	288	6	B	0	M1
TTP	90	0	5	B	0	M1
TTP	90	96	4	B	0	M1
TTP	90	192	3	B	0	M1
TTP	90	288	2	B	0	M1
TTP	90	352	0	C	0	M1
TTP	91	0	1	B	0	M1
TTP	91	96	0	B	0	M1
TTP	91	192	7	B	0	M1
TTP	91	288	6	B	0	M1
TTP	92	0	5	B	0	M1
TTP	92	96	4	B	0	M1
TTP	92	192	3	E	0	M1
TTP	92	224	5	E	0	M1
TTP	92	256	1	E	0	M1
TTP	92	288	7	E	0	M1
TTP	92	352	0	C	0	M1
TTP	93	0	1	B	0	M1
TTP	93	96	0	B	0	M1
TTP	93	192	7	B	0	M1
TTP	93	288	6	B	0	M1
TTP	94	0	5	B	0	M1
TTP	94	96	4	B	0	M1
TTP	94	192	3	B	0	M1
TTP	94	288	2	B	0	M1
TTP	94	352	0	C	0	M1
TTP	95	0	1	B	0	M1
TTP	95	96	0	B	0	M1
TTP	95	192	7	B	0	M1
TTP	95	288	6	B	0	M1
TTP	96	0	5	B	0	M1
TTP	96	96	4	B	0	M1
TTP	96	192	3	E	0	M1
TTP	96	224	6	E	0	M1
TTP	96	256	1	E	0	M1
TTP	96	288	5	E	0	M1
TTP	96	320	2	E	0	M1
TTP	96	352	7	E	0	M1
XTP	97	0	3
TAP	97	32	4
TAP	97	64	3
TAP	97	96	5
TAP	97	128	4
TAP	97	160	5
TAP	97	192	2
TAP	97	224	3
TAP	97	256	2
TAP	97	288	4
TAP	97	320	3
TAP	97	352	4
XTP	98	0	2
TAP	98	32	3
TAP	98	64	2
TAP	98	96	5
TAP	98	128	4
TAP	98	160	5
TAP	98	192	3
TAP	98	224	4
TAP	98	256	3
TAP	98	288	5
TAP	98	320	4
TAP	98	352	5
XTP	99	0	2
TAP	99	32	4
TAP	99	64	3
TAP	99	96	5
TAP	99	128	4
TAP	99	160	5
TAP	99	192	3
TAP	99	224	5
TAP	99	256	2
TAP	99	288	4
TAP	99	320	2
TAP	99	352	3
XTP	100	0	2
TAP	100	32	4
TAP	100	64	2
TAP	100	96	5
TAP	100	128	3
TAP	100	160	5
TAP	100	192	4
TAP	100	224	5
TAP	100	256	3
TAP	100	288	4
TAP	100	320	2
TAP	100	352	3
XTP	101	0	2
TTP	101	0	7	E	0	M1
TTP	101	24	6	B	0	M1
TTP	101	48	5	B	0	M1
TTP	101	72	5	E	0	M1
TTP	101	96	3	E	0	M1
TTP	101	120	2	B	0	M1
TTP	101	144	1	B	0	M1
TTP	101	168	1	E	0	M1
XTP	101	192	0
TTP	101	192	4	E	0	M1
TTP	101	216	4	B	0	M1
TTP	101	240	5	B	0	M1
TTP	101	264	6	E	0	M1
TTP	101	288	0	E	0	M1
TTP	101	312	0	B	0	M1
TTP	101	336	1	B	0	M1
TTP	101	360	2	E	0	M1
TTP	102	0	0	E	0	M1
XTP	102	0	2
TTP	102	24	7	B	0	M1
TTP	102	48	6	B	0	M1
TTP	102	72	6	E	0	M1
TTP	102	96	4	E	0	M1
TTP	102	120	3	B	0	M1
TTP	102	144	2	B	0	M1
TTP	102	168	2	E	0	M1
XTP	102	192	0
TTP	102	192	7	E	0	M1
TTP	102	216	6	B	0	M1
TTP	102	240	5	B	0	M1
TTP	102	264	5	E	0	M1
TTP	102	288	1	E	0	M1
XTP	102	288	4
TTP	102	312	1	B	0	M1
TTP	102	336	2	B	0	M1
TTP	102	360	3	E	0	M1
XTP	105	0	0
XTP	105	24	7
XTP	105	48	0
XTP	105	72	7
XTP	105	96	0
XTP	105	120	7
XTP	105	144	0
XST	105	192	1
SI_	105	192	1	96	48	5
XTP	105	192	6
XTP	105	288	1
XST	105	288	7
SI_	105	288	7	96	48	3
XST	106	0	0
SI_	106	0	0	96	48	5
XTP	106	0	7
XTP	106	96	0
XST	106	96	4
SI_	106	96	4	96	48	0
XST	106	192	2
SI_	106	192	2	96	48	6
XTP	106	192	4
XTP	106	288	2
XST	106	288	5
SI_	106	288	5	96	48	0
XTP	107	0	1
XTP	107	0	5
XTP	107	96	1
XTP	107	96	7
XTP	107	144	1
XTP	107	144	7
BRK	107	192	2
BST	107	192	6
SI_	107	192	6	96	48	3
XST	107	288	0
SI_	107	288	0	96	48	4
XTP	107	288	6
XTP	108	0	0
XTP	108	0	4
XTP	108	96	3
XTP	108	96	5
XTP	108	144	3
XTP	108	144	5
BRK	108	192	2
BRK	108	192	6
XTP	108	288	0
XTP	108	288	7
XTP	109	0	1
XTP	109	0	4
XTP	109	48	2
XTP	109	72	3
XTP	109	96	2
XTP	109	144	4
XTP	109	192	3
XST	109	192	5
SI_	109	192	5	96	48	7
XST	109	288	2
SI_	109	288	2	96	48	0
XTP	109	288	5
XTP	110	0	2
XST	110	0	6
SI_	110	0	6	96	48	2
XST	110	96	1
SI_	110	96	1	96	48	5
XTP	110	96	6
XTP	110	192	1
XST	110	192	7
SI_	110	192	7	96	48	3
XTP	110	288	0
XTP	110	288	7
XTP	111	0	1
XTP	111	0	5
XTP	111	48	1
XTP	111	48	5
XTP	111	96	1
XTP	111	96	5
XTP	111	144	1
XTP	111	144	5
BRK	111	192	0
BRK	111	192	4
HLD	111	288	5	96
HLD	112	0	7	96
HLD	112	96	0	96
HLD	112	192	2	96
TAP	112	288	4
TTP	113	0	0	C	1	M1
TTP	113	0	2	E	0	M1
TTP	113	0	6	E	0	M1
XTP	113	192	1
XST	113	192	6
SI_	113	192	6	96	48	2
XST	113	288	0
SI_	113	288	0	96	48	4
XTP	113	288	6
XTP	114	0	0
XST	114	0	7
SI_	114	0	7	96	48	2
XST	114	96	3
SI_	114	96	3	96	48	7
XTP	114	96	7
XTP	114	192	3
XST	114	192	5
SI_	114	192	5	96	48	1
XST	114	288	2
SI_	114	288	2	96	48	7
XTP	114	288	5
XTP	115	0	2
XTP	115	0	6
XTP	115	96	0
XTP	115	96	6
XTP	115	144	0
XTP	115	144	6
BST	115	192	1
SI_	115	192	1	96	48	4
BRK	115	192	5
XTP	115	288	1
XST	115	288	7
SI_	115	288	7	96	48	3
XTP	116	0	3
XTP	116	0	7
XTP	116	96	2
XTP	116	96	4
XTP	116	144	2
XTP	116	144	4
BRK	116	192	1
BRK	116	192	5
XTP	116	288	0
XTP	116	288	7
XTP	117	0	3
XTP	117	0	6
XTP	117	48	5
XTP	117	72	4
XTP	117	96	5
XTP	117	144	3
XST	117	192	2
SI_	117	192	2	96	48	0
XTP	117	192	4
XTP	117	288	2
XST	117	288	5
SI_	117	288	5	96	48	7
XST	118	0	1
SI_	118	0	1	96	48	5
XTP	118	0	5
XTP	118	96	1
XST	118	96	6
SI_	118	96	6	96	48	2
XST	118	192	0
SI_	118	192	0	96	48	4
XTP	118	192	6
XTP	118	288	0
XTP	118	288	7
XTP	119	0	2
XTP	119	0	6
XTP	119	48	2
XTP	119	48	6
XTP	119	96	2
XTP	119	96	6
XTP	119	144	2
XTP	119	144	6
BRK	119	192	3
BRK	119	192	7
BRK	120	0	1
BRK	120	0	2
BRK	120	192	5
BRK	120	192	6
XTP	121	96	0
XTP	121	120	7
XTP	121	144	0
XTP	121	168	7
XTP	121	192	0
XTP	121	216	7
XTP	121	240	0
XTP	121	264	7
XTP	121	288	0
XTP	121	312	7
XTP	121	336	0
XTP	122	48	5
TTP	122	54	5	B	0	M1
XTP	122	128	1
TTP	122	134	1	B	0	M1
XTP	122	208	6
TTP	122	214	6	B	0	M1
XTP	122	288	2
TTP	122	294	2	B	0	M1
XTP	122	368	4
TTP	122	374	4	B	0	M1
XTP	123	64	0
TTP	123	70	0	B	0	M1
XTP	123	144	7
TTP	123	150	7	B	0	M1
XTP	123	224	3
TTP	123	230	3	B	0	M1
XTP	124	24	5
TTP	124	30	5	E	0	M1
TTP	124	36	4	B	0	M1
XTP	124	90	0
TTP	124	96	0	E	0	M1
TTP	124	102	7	B	0	M1
XTP	124	152	6
TTP	124	159	6	E	0	M1
TTP	124	165	5	B	0	M1
XTP	124	216	1
TTP	124	222	1	E	0	M1
TTP	124	228	0	B	0	M1
XTP	124	276	6
TTP	124	282	7	E	0	M1
TTP	124	288	7	B	0	M1
XTP	124	342	2
TTP	124	348	2	E	0	M1
TTP	124	354	1	B	0	M1
XTP	125	18	5
TTP	125	24	5	E	0	M1
TTP	125	30	4	B	0	M1
XTP	125	84	2
TTP	125	90	3	E	0	M1
TTP	125	96	3	B	0	M1
XTP	125	144	7
TTP	125	150	0	E	0	M1
TTP	125	156	0	B	0	M1
XTP	125	288	3
XTP	125	312	4
XTP	125	336	3
XTP	125	360	4
XTP	126	0	3
XTP	126	24	4
XTP	126	48	3
XTP	126	72	4
XTP	126	96	3
XTP	126	120	4
XTP	126	144	3
XTP	126	168	4
XTP	126	192	3
XTP	126	216	4
XTP	126	240	3
XTP	126	264	4
XTP	126	288	3
XTP	126	312	4
XTP	126	336	3
XTP	126	360	4
XTP	127	0	3
XTP	127	24	4
XTP	127	48	3
XTP	127	72	4
XTP	127	96	3
XTP	127	120	4
XTP	127	144	3
XTP	127	168	4
XHO	127	192	3	12
XHO	127	216	4	12
XHO	127	240	3	12
XHO	127	264	4	12
XHO	127	288	3	12
XHO	127	312	4	12
XHO	127	336	3	12
XHO	127	360	4	12
XHO	128	0	3	12
XHO	128	24	4	12
XHO	128	48	3	12
XHO	128	72	4	12
XHO	128	96	3	12
XHO	128	120	4	12
XHO	128	144	3	12
XHO	128	168	4	12
XHO	128	192	3	8
XHO	128	208	2	8
XHO	128	224	1	8
XHO	128	240	0	8
XHO	128	256	7	8
XHO	128	272	6	8
XHO	128	288	5	8
XHO	128	304	4	8
XHO	128	320	3	8
XHO	128	336	2	8
XHO	128	352	1	8
XHO	128	368	0	8
XHO	129	0	7	8
XHO	129	16	6	8
XHO	129	32	5	8
XHO	129	48	4	8
XHO	129	64	3	8
XHO	129	80	2	8
XHO	129	96	1	8
XHO	129	112	0	8
XHO	129	128	7	8
XHO	129	144	6	8
XHO	129	160	5	8
XHO	129	176	4	8
TTP	129	192	0	C	1	M1
BRK	129	192	3
HLD	132	0	3	192
HLD	132	0	4	192

T_REC_TAP	417
T_REC_BRK	50
T_REC_XTP	296
T_REC_HLD	57
T_REC_XHO	70
T_REC_STR	15
T_REC_BST	2
T_REC_XST	34
T_REC_TTP	272
T_REC_THO	3
T_REC_SLD	51
T_REC_ALL	1267
T_NUM_TAP	1034
T_NUM_BRK	52
T_NUM_HLD	130
T_NUM_SLD	51
T_NUM_ALL	1267
T_JUDGE_TAP	1086
T_JUDGE_HLD	218
T_JUDGE_SLD	51
T_JUDGE_ALL	1355
TTM_EACHPAIRS	158
TTM_SCR_TAP	517000
TTM_SCR_BRK	135200
TTM_SCR_HLD	130000
TTM_SCR_SLD	76500
TTM_SCR_ALL	858700
TTM_SCR_S	827900
TTM_SCR_SS	853500
TTM_RAT_ACV	10060

