VERSION	0.00.00	1.03.00
FES_MODE	0
BPM_DEF	175.000	175.000	260.000	175.000
MET_DEF	4	4
RESOLUTION	384
CLK_DEF	384
COMPATIBLE_CODE	MA2

BPM	0	0	175.000
BPM	105	0	260.000
MET	0	0	4	4
MET	105	0	4	2
MET	105	192	4	4

THO	1	0	0	1152	C	0	M1
HLD	5	0	2	384
HLD	6	0	3	384
HLD	7	0	4	384
HLD	8	0	5	384
TAP	9	0	4
TAP	9	96	4
HLD	9	192	4	144
HLD	9	192	5	144
TAP	10	48	5
TAP	10	96	5
TAP	10	192	4
TAP	10	192	6
TAP	11	0	3
TAP	11	96	2
HLD	11	192	2	144
HLD	11	192	3	144
TAP	12	48	2
TAP	12	96	2
TAP	12	192	1
TAP	12	192	3
TAP	13	0	3
TAP	13	96	4
HLD	13	192	3	144
HLD	13	192	5	144
TAP	14	48	4
TAP	14	96	4
TAP	14	192	3
TAP	14	192	5
TAP	15	0	5
TAP	15	96	6
HLD	15	192	1	144
HLD	15	192	7	144
TAP	16	48	7
TAP	16	96	7
TAP	16	192	0
HLD	16	192	6	192
STR	17	0	7
SSR	17	0	7	96	384	3
THO	19	96	0	432	C	1	M1
TTP	20	144	1	B	0	M1
TTP	20	144	6	B	0	M1
HLD	21	0	0	384
BRK	21	0	7
TAP	21	288	4
TAP	21	336	4
HLD	22	0	4	288
TAP	22	288	3
XTP	22	336	3
XTP	23	0	3
HLD	23	0	5	384
TAP	23	288	4
TAP	23	336	4
HLD	24	0	4	288
XTP	24	288	5
XTP	24	336	5
XTP	25	0	4
HLD	25	0	6	384
TAP	25	288	7
TAP	25	336	7
HLD	26	0	7	288
TAP	26	288	6
XTP	26	336	6
XST	27	0	0
SI_	27	0	0	96	192	4
HLD	27	0	5	288
TAP	28	0	5
TAP	28	96	5
TAP	28	192	4
TAP	28	192	5
BRK	28	288	3
BRK	28	312	4
BRK	28	336	3
BRK	28	360	4
BRK	29	0	3
HLD	29	96	2	576
TAP	29	240	3
TAP	29	288	3
TAP	30	96	1
TAP	30	240	3
TAP	30	288	3
HLD	31	0	5	672
TAP	31	96	4
TAP	31	240	6
TAP	31	288	6
TAP	32	96	4
TAP	32	240	0
TAP	32	288	0
HLD	33	0	1	672
TAP	33	96	3
TAP	33	240	0
TAP	33	288	0
TAP	34	96	2
TAP	34	240	7
TAP	34	288	7
TAP	35	0	2
TAP	35	48	2
TAP	35	96	4
TAP	35	144	4
TAP	35	192	3
TAP	35	240	3
TAP	35	288	5
TAP	35	336	5
TAP	36	0	2
TAP	36	48	2
TAP	36	96	6
TAP	36	144	6
TAP	36	192	1
TAP	36	240	1
TAP	36	288	7
TAP	36	336	7
TAP	37	0	0
TAP	37	24	7
TAP	37	48	0
TAP	37	72	7
TAP	37	96	0
TAP	37	120	7
TAP	37	144	0
TAP	37	168	7
TAP	37	192	0
TAP	37	216	7
TAP	37	240	0
TAP	37	264	7
TAP	37	288	0
TAP	37	312	7
TAP	37	336	0
BRK	38	0	1
BRK	38	0	6
HLD	39	0	3	48
HLD	39	0	4	48
TTP	39	144	0	C	1	M1
TTP	39	144	1	B	0	M1
TTP	39	144	2	B	0	M1
TTP	39	144	5	B	0	M1
TTP	39	144	6	B	0	M1
XTP	40	96	0
XTP	40	96	7
XTP	40	168	1
XTP	40	168	6
XTP	40	240	2
XTP	40	240	5
BRK	40	288	2
BRK	40	288	5
TAP	41	0	2
TAP	41	0	3
TAP	41	96	0
TAP	41	96	1
TAP	41	192	2
TAP	41	192	3
TAP	41	288	1
TAP	41	288	4
TAP	41	336	5
TAP	42	0	4
TAP	42	0	5
TAP	42	96	6
TAP	42	96	7
TAP	42	192	4
TAP	42	192	5
TAP	42	288	3
TAP	42	288	6
TAP	42	336	2
TAP	43	0	2
TAP	43	0	3
TAP	43	96	0
TAP	43	96	1
TAP	43	192	2
TAP	43	192	3
TAP	43	288	1
TAP	43	288	4
TAP	43	336	5
TAP	44	0	4
TAP	44	0	5
TAP	44	96	1
TAP	44	96	3
TAP	44	192	5
TAP	44	192	6
BRK	44	288	2
BRK	44	288	7
TAP	45	0	4
TAP	45	0	5
TAP	45	96	6
TAP	45	96	7
TAP	45	192	4
TAP	45	192	5
TAP	45	288	3
TAP	45	288	6
TAP	45	336	2
TAP	46	0	2
TAP	46	0	3
TAP	46	96	0
TAP	46	96	1
TAP	46	192	2
TAP	46	192	3
TAP	46	288	0
TAP	46	288	5
TAP	46	336	6
TAP	47	0	4
TAP	47	0	6
TAP	47	96	0
TAP	47	96	1
TAP	47	192	2
TAP	47	192	3
TAP	47	288	5
TAP	47	288	7
BRK	48	0	3
BST	48	0	6
SCR	48	0	6	96	144	3
XTP	48	288	0
HLD	49	0	6	48
HLD	49	0	7	48
HLD	49	96	4	48
HLD	49	96	5	48
HLD	49	192	6	48
HLD	49	192	7	48
TAP	49	288	0
TAP	49	288	5
TAP	49	336	1
HLD	50	0	0	48
HLD	50	0	1	48
HLD	50	96	2	48
HLD	50	96	3	48
HLD	50	192	0	48
HLD	50	192	1	48
TAP	50	288	2
TAP	50	288	7
TAP	50	336	6
HLD	51	0	6	48
HLD	51	0	7	48
HLD	51	96	1	48
HLD	51	96	2	48
HLD	51	192	4	48
HLD	51	192	5	48
TAP	51	288	1
TAP	51	288	3
TAP	51	336	0
HLD	52	0	0	48
HLD	52	0	6	48
HLD	52	96	1	48
HLD	52	96	7	48
BRK	52	192	0
BRK	52	192	6
BRK	52	240	1
BRK	52	240	5
BRK	52	288	2
BRK	52	288	4
HLD	53	0	4	48
HLD	53	0	6	48
HLD	53	96	1	48
HLD	53	96	3	48
HLD	53	192	3	48
HLD	53	192	4	48
TAP	53	288	3
TAP	53	288	4
TAP	53	336	2
HLD	54	0	1	48
HLD	54	0	6	48
HLD	54	96	0	48
HLD	54	96	2	48
HLD	54	192	5	48
HLD	54	192	7	48
TAP	54	288	0
TAP	54	288	1
TAP	54	336	2
TAP	54	336	7
HLD	55	0	3	48
HLD	55	0	6	48
HLD	55	96	1	48
HLD	55	96	4	48
TAP	55	192	3
TAP	55	192	5
TAP	55	240	6
STR	55	288	7
SI_	55	288	7	96	96	3
HLD	56	0	0	288
BRK	56	288	6
STR	57	0	5
SCL	57	0	5	96	96	2
TAP	57	192	1
TAP	57	288	1
STR	58	0	2
SCR	58	0	2	96	96	5
TAP	58	192	6
TAP	58	288	6
HLD	59	0	1	192
HLD	59	0	6	192
XTP	59	288	0
XTP	59	352	7
XTP	60	12	0
XTP	60	60	7
XTP	60	108	0
XTP	60	144	7
XTP	60	288	2
XTP	60	288	5
STR	61	0	1
SCL	61	0	1	96	96	6
TAP	61	192	5
TAP	61	288	5
STR	62	0	6
SCR	62	0	6	96	96	1
TAP	62	192	2
TAP	62	288	2
STR	63	0	3
SXR	63	0	3	96	288	0
STR	63	0	4
SXL	63	0	4	96	288	7
BRK	64	288	2
BRK	64	288	5
BST	65	0	3
SI_	65	0	3	96	48	0
BST	65	96	4
SI_	65	96	4	96	48	7
BST	65	192	3
SI_	65	192	3	96	48	0
BST	65	288	4
SI_	65	288	4	96	48	7
BST	66	0	3
SI_	66	0	3	96	48	0
BST	66	96	4
SI_	66	96	4	96	48	7
BRK	66	192	3
BRK	66	288	1
BRK	66	288	6
BST	67	0	3
SI_	67	0	3	96	48	7
BST	67	96	4
SI_	67	96	4	96	48	0
BST	67	192	3
SI_	67	192	3	96	48	7
BRK	67	288	6
BST	68	0	4
SI_	68	0	4	96	48	0
BST	68	0	5
SI_	68	0	5	96	48	7
BST	68	192	2
SI_	68	192	2	96	48	0
BST	68	192	3
SI_	68	192	3	96	48	7
BST	69	0	5
SI_	69	0	5	96	48	7
BST	69	96	4
SI_	69	96	4	96	48	0
BST	69	192	5
SI_	69	192	5	96	48	7
BST	69	288	2
SI_	69	288	2	96	48	0
BST	70	0	3
SI_	70	0	3	96	48	7
BST	70	96	2
SI_	70	96	2	96	48	0
BRK	70	192	6
BST	70	288	4
SCR	70	288	4	96	48	7
BST	71	0	3
SCL	71	0	3	96	48	0
BST	71	96	4
SCR	71	96	4	96	48	7
BST	71	192	3
SF_	71	192	3	96	48	7
TTP	71	288	0	C	1	M1
BRK	72	288	1
BRK	72	288	6
TAP	73	0	2
TAP	73	48	2
TAP	73	96	3
TAP	73	144	1
TAP	73	192	5
TAP	73	240	5
TAP	73	288	4
TAP	73	336	6
TAP	74	0	1
TAP	74	48	1
TAP	74	96	3
TAP	74	144	2
TAP	74	192	6
TAP	74	240	6
TAP	74	288	4
TAP	74	336	5
TAP	75	0	1
TAP	75	48	1
TAP	75	96	0
TAP	75	144	2
TAP	75	192	5
TAP	75	240	4
HLD	75	288	6	96
TAP	76	0	0
TAP	76	96	1
TAP	76	96	3
TAP	76	192	3
TAP	76	192	4
TAP	76	288	1
TAP	76	288	6
TAP	77	0	5
TAP	77	48	5
TAP	77	96	4
TAP	77	144	6
TAP	77	192	2
TAP	77	240	2
TAP	77	288	3
TAP	77	336	1
TAP	78	0	6
TAP	78	48	6
TAP	78	96	5
TAP	78	144	7
TAP	78	192	1
TAP	78	240	1
TAP	78	288	2
TAP	78	336	0
TAP	79	0	7
TAP	79	48	6
TAP	79	96	5
TAP	79	144	4
TAP	79	192	3
TAP	79	240	2
TAP	79	288	1
TAP	79	336	0
XTP	80	0	6
XTP	80	0	7
XTP	80	48	0
XTP	80	48	5
BRK	80	96	1
BRK	80	96	4
XTP	80	192	0
XTP	80	192	1
XTP	80	240	2
XTP	80	240	7
BRK	80	288	3
BRK	80	288	6
THO	81	0	0	576	C	0	M1
TTP	82	192	7	E	0	M1
TTP	82	288	0	E	0	M1
TTP	83	0	1	E	0	M1
TTP	83	192	4	B	0	M1
TTP	83	192	5	B	0	M1
TTP	84	0	1	B	0	M1
TTP	84	0	2	B	0	M1
TTP	84	192	7	E	0	M1
TTP	84	288	6	E	0	M1
TTP	85	0	4	B	0	M1
TTP	85	0	5	E	0	M1
TTP	85	192	0	C	0	M1
TTP	86	0	1	B	0	M1
TTP	86	0	1	E	0	M1
TTP	86	192	5	B	0	M1
TTP	86	192	5	E	0	M1
HLD	87	0	2	288
HLD	87	0	4	672
HLD	88	0	3	288
BRK	89	0	3
BRK	89	0	4
TAP	89	96	4
TAP	89	192	4
TAP	89	288	4
TAP	90	0	3
TAP	90	96	3
TAP	90	192	3
TAP	90	288	3
TAP	91	0	5
TAP	91	96	5
TAP	91	192	4
TAP	91	288	4
TAP	92	0	3
TAP	92	96	3
TAP	92	192	2
TAP	92	288	2
BRK	93	0	2
BRK	93	0	3
TAP	93	96	2
TAP	93	192	2
TAP	93	192	3
TAP	93	288	2
TAP	94	0	1
TAP	94	0	2
TAP	94	96	2
TAP	94	192	2
TAP	94	192	3
TAP	94	288	3
TAP	94	288	4
TAP	95	0	4
TAP	95	0	5
TAP	95	96	5
TAP	95	192	4
TAP	95	192	5
TAP	95	288	5
TAP	96	0	5
TAP	96	0	6
TAP	96	96	5
TAP	96	192	4
TAP	96	192	5
TAP	96	288	3
STR	96	288	4
SCR	96	288	4	96	288	7
BRK	97	0	3
TAP	97	96	3
TAP	97	192	3
STR	97	288	3
SCL	97	288	3	96	288	0
XTP	98	0	7
TAP	98	96	7
TAP	98	192	7
STR	98	288	7
SCL	98	288	7	96	288	4
BRK	99	0	0
TAP	99	96	0
TAP	99	192	0
STR	99	288	0
SCR	99	288	0	96	288	3
XTP	100	0	4
TAP	100	96	4
TAP	100	192	4
STR	100	288	4
SI_	100	288	4	96	96	7
BRK	101	0	2
STR	101	96	3
SI_	101	96	3	96	96	0
XTP	101	192	6
STR	101	288	4
SI_	101	288	4	96	96	0
XTP	102	0	1
TAP	102	96	2
XTP	102	192	3
XTP	102	192	7
XHO	102	288	0	492
XHO	102	288	4	492
BRK	105	0	0
BRK	105	0	7
BRK	105	192	1
BRK	105	192	3
TAP	105	288	6
TAP	105	288	7
TAP	106	0	4
TAP	106	0	5
TAP	106	96	2
TAP	106	96	7
TAP	106	192	4
TAP	106	192	6
TAP	106	288	0
TAP	106	288	1
TAP	107	0	2
TAP	107	0	3
TAP	107	96	0
TAP	107	96	5
BRK	107	192	2
BRK	107	192	3
TAP	107	288	5
TAP	107	288	6
TAP	108	0	0
TAP	108	0	1
TAP	108	96	5
TAP	108	96	6
TAP	108	192	2
TAP	108	192	3
TAP	108	288	1
TAP	108	288	6
TAP	109	0	7
TAP	109	48	7
TAP	109	96	0
BRK	109	192	2
BRK	109	192	5
TAP	109	288	6
TAP	109	288	7
TAP	110	0	3
TAP	110	0	4
TAP	110	96	0
TAP	110	96	1
TAP	110	192	5
TAP	110	192	7
TAP	110	288	2
TAP	110	288	3
TAP	111	0	1
TAP	111	48	1
TAP	111	96	0
HLD	111	192	2	96
TAP	111	192	7
HLD	111	288	3	96
HLD	112	0	4	96
HLD	112	96	5	96
BRK	112	192	6
BRK	112	288	0
BRK	112	288	7
BRK	113	0	2
BRK	113	0	5
BRK	113	192	1
BRK	113	192	3
TAP	113	288	5
TAP	113	288	7
TAP	114	0	0
TAP	114	0	2
TAP	114	96	4
TAP	114	96	6
TAP	114	192	2
TAP	114	192	3
TAP	114	288	6
TAP	114	288	7
TAP	115	0	1
TAP	115	0	2
TAP	115	96	4
TAP	115	96	5
BRK	115	192	0
BRK	115	192	2
TAP	115	288	5
TAP	115	288	6
TAP	116	0	1
TAP	116	0	3
TAP	116	96	6
TAP	116	96	7
BRK	116	192	0
BRK	116	192	2
TAP	116	288	4
TAP	116	288	5
TAP	117	0	2
TAP	117	48	2
TAP	117	96	3
BRK	117	192	1
BRK	117	192	4
TAP	117	288	5
TAP	117	288	6
BRK	118	0	2
BRK	118	0	7
TAP	118	96	1
TAP	118	96	3
BRK	118	192	5
BRK	118	192	6
BRK	118	288	1
BRK	118	288	2
BRK	119	0	5
BRK	119	0	6
BRK	119	96	1
BRK	119	96	2
BST	119	192	0
SI_	119	192	0	96	48	4
BST	120	0	7
SI_	120	0	7	96	48	3
BRK	120	192	1
BRK	120	192	5
XTP	121	96	0
XTP	121	120	7
XTP	121	144	0
XTP	121	168	7
XTP	121	192	0
XTP	121	216	7
XTP	121	240	0
XTP	122	48	2
XTP	122	48	3
XTP	122	128	2
XTP	122	128	3
XTP	122	208	1
XTP	122	208	4
XTP	122	288	0
XTP	122	288	5
XTP	122	368	6
XTP	122	368	7
XTP	123	64	0
XTP	123	64	1
XTP	123	144	2
XTP	123	144	7
XTP	123	224	3
XTP	123	224	6
XTP	124	24	6
XTP	124	24	7
XTP	124	90	6
XTP	124	90	7
XTP	124	152	0
XTP	124	152	5
XTP	124	216	1
XTP	124	216	4
XTP	124	276	2
XTP	124	276	3
XTP	124	342	2
XTP	124	342	3
XTP	125	18	1
XTP	125	18	4
XTP	125	84	0
XTP	125	84	5
XTP	125	144	6
XTP	125	144	7
TAP	125	288	0
TAP	125	336	7
TAP	126	0	0
TAP	126	48	7
TAP	126	96	0
TAP	126	144	7
TAP	126	192	0
TAP	126	240	7
TAP	126	288	0
TAP	126	336	7
TAP	127	0	0
TAP	127	48	7
TAP	127	96	0
TAP	127	144	7
TAP	127	192	1
TAP	127	216	2
TAP	127	240	3
TAP	127	264	4
TAP	127	288	5
TAP	127	312	6
TAP	127	336	7
TAP	127	360	0
TAP	128	0	1
TAP	128	24	2
TAP	128	48	3
TAP	128	72	4
TAP	128	96	5
TAP	128	120	6
TAP	128	144	7
TAP	128	168	0
TAP	128	192	1
TAP	128	216	2
TAP	128	240	3
TAP	128	264	4
TAP	128	288	5
TAP	128	312	6
TAP	128	336	7
TAP	128	360	0
TAP	129	0	1
TAP	129	24	2
TAP	129	48	3
TAP	129	72	4
TAP	129	96	5
TAP	129	120	6
TAP	129	144	7
TAP	129	168	0
TTP	129	192	0	C	1	M1
BRK	129	192	1
HLD	132	0	3	192
HLD	132	0	4	192

T_REC_TAP	385
T_REC_BRK	74
T_REC_XTP	76
T_REC_HLD	76
T_REC_XHO	2
T_REC_STR	15
T_REC_BST	26
T_REC_XST	1
T_REC_TTP	25
T_REC_THO	3
T_REC_SLD	42
T_REC_ALL	725
T_NUM_TAP	502
T_NUM_BRK	100
T_NUM_HLD	81
T_NUM_SLD	42
T_NUM_ALL	725
T_JUDGE_TAP	602
T_JUDGE_HLD	305
T_JUDGE_SLD	42
T_JUDGE_ALL	949
TTM_EACHPAIRS	173
TTM_SCR_TAP	251000
TTM_SCR_BRK	260000
TTM_SCR_HLD	81000
TTM_SCR_SLD	63000
TTM_SCR_ALL	655000
TTM_SCR_S	625650
TTM_SCR_SS	645000
TTM_RAT_ACV	10155

