VERSION	0.00.00	1.03.00
FES_MODE	0
BPM_DEF	175.000	175.000	260.000	175.000
MET_DEF	4	4
RESOLUTION	384
CLK_DEF	384
COMPATIBLE_CODE	MA2

BPM	0	0	175.000
BPM	105	0	260.000
MET	0	0	4	4
MET	105	0	4	2
MET	105	192	4	4

THO	1	0	0	1152	C	0	L1
TTP	5	0	5	B	0	L1
TTP	5	0	6	B	0	L1
TTP	6	0	1	B	0	L1
TTP	6	0	2	B	0	L1
TTP	7	0	4	B	0	L1
TTP	7	0	5	B	0	L1
TTP	8	0	2	B	0	L1
TTP	8	0	3	B	0	L1
HLD	9	0	5	384
TAP	9	192	4
TAP	10	0	4
HLD	11	0	2	384
TAP	11	192	3
TAP	12	0	3
HLD	13	0	4	384
TAP	13	192	3
TAP	14	0	3
HLD	15	0	3	384
HLD	15	0	4	384
XHO	17	0	2	1296
XHO	17	0	5	1296
XST	21	0	4
SI_	21	0	4	96	288	0
STR	23	0	0
SI_	23	0	0	96	288	4
STR	25	0	4
SI_	25	0	4	96	288	0
STR	27	0	0
SI_	27	0	0	96	288	4
XTP	28	192	3
XTP	28	192	5
STR	29	0	2
SI_	29	0	2	96	288	7
TAP	30	192	6
STR	31	0	6
SI_	31	0	6	96	288	2
TAP	32	192	1
STR	33	0	1
SI_	33	0	1	96	288	5
TAP	34	192	6
STR	35	0	6
SCL	35	0	6	96	288	3
TAP	36	192	2
TAP	37	0	2
TAP	37	0	3
TAP	37	192	4
TAP	37	192	5
BRK	38	0	3
BRK	38	0	4
THO	39	0	0	144	C	1	L1
XHO	40	96	1	96
XHO	40	96	6	96
XTP	40	288	1
XTP	40	288	6
TAP	41	0	2
TAP	41	96	2
TAP	41	192	2
TAP	41	192	3
TAP	41	288	2
TAP	41	288	3
TAP	42	0	5
TAP	42	96	5
TAP	42	192	4
TAP	42	192	5
TAP	42	288	4
TAP	42	288	5
TAP	43	0	2
TAP	43	96	2
TAP	43	96	3
TAP	43	192	5
TAP	43	288	4
TAP	43	288	5
TAP	44	0	3
TAP	44	0	4
TAP	44	96	3
TAP	44	96	4
TAP	44	192	2
TAP	44	192	5
TAP	45	0	1
TAP	45	96	1
TAP	45	192	0
TAP	45	192	1
TAP	45	288	0
TAP	45	288	1
TAP	46	0	6
TAP	46	96	6
TAP	46	192	6
TAP	46	192	7
TAP	46	288	6
TAP	46	288	7
XTP	47	0	0
XTP	47	96	1
XTP	47	96	7
XTP	47	192	2
XTP	47	192	6
XTP	47	288	3
XTP	47	288	5
BRK	48	0	4
XTP	48	288	3
XTP	48	288	4
TAP	49	0	2
TAP	49	96	2
TAP	49	192	1
TAP	49	192	3
TAP	49	288	1
TAP	49	288	3
TAP	50	0	0
TAP	50	96	0
TAP	50	192	1
TAP	50	192	7
TAP	50	288	1
TAP	50	288	7
TAP	51	0	6
TAP	51	96	6
TAP	51	192	5
TAP	51	192	7
TAP	51	288	5
TAP	51	288	7
TAP	52	0	4
TAP	52	96	3
TAP	52	96	5
BRK	52	192	2
BRK	52	192	6
TAP	53	0	5
TAP	53	96	5
TAP	53	192	4
TAP	53	192	6
TAP	53	288	4
TAP	53	288	6
TAP	54	0	7
TAP	54	96	7
TAP	54	192	0
TAP	54	192	6
TAP	54	288	0
TAP	54	288	6
TAP	55	0	1
TAP	55	0	5
TAP	55	96	1
TAP	55	96	5
TAP	55	192	2
TAP	55	192	6
TAP	55	288	2
TAP	55	288	6
XHO	56	0	3	192
XHO	56	0	4	192
HLD	57	0	1	192
HLD	57	192	2	192
TAP	58	0	3
TAP	58	192	3
TAP	58	192	4
HLD	59	0	6	192
HLD	59	192	5	192
TAP	60	0	4
TAP	60	192	3
TAP	60	192	6
HLD	61	0	5	192
HLD	61	192	6	192
TAP	62	0	7
TAP	62	192	0
TAP	62	192	7
STR	63	0	1
SI_	63	0	1	96	288	4
STR	63	0	6
SI_	63	0	6	96	288	3
XTP	65	0	2
XTP	65	0	3
XTP	65	96	4
XTP	65	96	5
XTP	65	192	2
XTP	65	192	3
XTP	65	288	4
XTP	65	288	5
XTP	66	0	2
XTP	66	0	3
XTP	66	96	4
XTP	66	96	5
XTP	66	192	2
XTP	66	192	3
TAP	66	288	2
TAP	66	288	3
XTP	67	0	4
XTP	67	0	5
XTP	67	96	2
XTP	67	96	3
XTP	67	192	4
XTP	67	192	5
XTP	67	288	2
XTP	67	288	3
HLD	68	0	3	96
HLD	68	0	4	96
BRK	68	192	2
BRK	68	192	5
XTP	69	0	6
XTP	69	0	7
XTP	69	96	0
XTP	69	96	1
XTP	69	192	6
XTP	69	192	7
XTP	69	288	0
XTP	69	288	1
XTP	70	0	6
XTP	70	0	7
XTP	70	96	0
XTP	70	96	1
XTP	70	192	6
XTP	70	192	7
TAP	70	288	6
TAP	70	288	7
XTP	71	0	4
XTP	71	0	5
XTP	71	96	2
XTP	71	96	3
BRK	71	192	3
BRK	71	192	4
BRK	71	288	1
BRK	71	288	6
TAP	73	0	2
TAP	73	48	2
TAP	73	96	2
TAP	73	192	2
TAP	73	192	3
TAP	73	288	2
TAP	73	288	3
TAP	74	0	4
TAP	74	48	4
TAP	74	96	4
TAP	74	192	3
TAP	74	192	4
TAP	74	288	3
TAP	74	288	4
TAP	75	0	5
TAP	75	48	5
TAP	75	96	5
TAP	75	192	4
TAP	75	192	5
TAP	75	288	4
TAP	75	288	5
TAP	76	0	6
TAP	76	48	6
TAP	76	96	6
TAP	76	192	1
TAP	76	192	7
TAP	77	0	2
TAP	77	48	2
TAP	77	96	2
TAP	77	192	2
TAP	77	192	3
TAP	77	288	3
TAP	77	288	4
TAP	78	0	5
TAP	78	48	5
TAP	78	96	5
TAP	78	192	4
TAP	78	192	5
TAP	78	288	3
TAP	78	288	4
TAP	79	0	2
TAP	79	48	2
TAP	79	96	2
TAP	79	192	1
TAP	79	192	3
TAP	79	288	1
TAP	79	288	3
XTP	80	0	0
XTP	80	48	0
XTP	80	96	0
XTP	80	192	7
XTP	80	240	7
XST	80	288	7
SCL	80	288	7	96	768	0
HLD	84	0	1	192
HLD	84	0	7	192
STR	85	0	0
SSL	85	0	0	96	672	4
HLD	88	0	3	192
HLD	88	0	4	192
TTP	89	0	2	B	0	L1
TTP	89	0	4	B	0	L1
TTP	89	192	3	B	0	L1
TTP	89	192	5	B	0	L1
TTP	90	0	3	E	0	L1
TTP	90	96	2	E	0	L1
TTP	90	192	1	E	0	L1
TTP	91	0	3	B	0	L1
TTP	91	0	5	B	0	L1
TTP	91	192	2	B	0	L1
TTP	91	192	4	B	0	L1
TTP	92	0	5	E	0	L1
TTP	92	96	6	E	0	L1
TTP	92	192	7	E	0	L1
THO	93	0	0	384	C	0	L1
TTP	95	0	0	B	0	L1
TTP	95	0	6	B	0	L1
TTP	95	192	1	B	0	L1
TTP	95	192	7	B	0	L1
TTP	96	0	1	E	0	L1
TTP	96	96	0	C	0	L1
TTP	96	192	5	E	0	L1
XST	97	0	6
SI_	97	0	6	96	192	2
XST	98	0	1
SI_	98	0	1	96	192	4
XST	99	0	6
SI_	99	0	6	96	192	2
XST	100	0	1
SI_	100	0	1	96	192	4
XHO	101	0	5	192
XHO	101	192	4	192
XHO	102	0	3	192
XTP	102	192	4
XTP	102	288	3
XTP	102	288	4
XTP	105	0	2
XTP	105	0	5
TAP	105	192	3
TAP	105	288	2
TAP	106	0	1
TAP	106	96	0
TAP	106	192	7
TAP	106	288	6
TAP	107	0	5
TAP	107	96	4
TAP	107	192	2
TAP	107	192	3
TAP	107	288	2
TAP	107	288	3
TAP	108	0	1
TAP	108	0	4
TAP	108	96	1
TAP	108	96	4
TAP	108	192	0
TAP	108	192	5
TAP	108	288	0
TAP	108	288	5
XTP	109	0	0
XTP	109	0	5
TAP	109	192	4
TAP	109	192	5
TAP	109	288	4
TAP	109	288	5
TAP	110	0	3
TAP	110	0	6
TAP	110	96	3
TAP	110	96	6
TAP	110	192	2
TAP	110	192	7
TAP	110	288	2
TAP	110	288	7
TAP	111	0	0
TAP	111	0	1
STR	111	96	0
SSL	111	96	0	96	384	4
TAP	111	96	1
XTP	113	0	3
XTP	113	0	5
TAP	113	192	4
TAP	113	288	5
TAP	114	0	6
TAP	114	96	7
TAP	114	192	0
TAP	114	288	1
TAP	115	0	2
TAP	115	96	3
TAP	115	192	4
TAP	115	192	5
TAP	115	288	4
TAP	115	288	5
TAP	116	0	3
TAP	116	0	6
TAP	116	96	3
TAP	116	96	6
TAP	116	192	2
TAP	116	192	7
TAP	116	288	2
TAP	116	288	7
TAP	117	0	2
TAP	117	0	7
TAP	117	192	2
TAP	117	192	3
TAP	117	288	2
TAP	117	288	3
TAP	118	0	1
TAP	118	0	4
TAP	118	96	1
TAP	118	96	4
TAP	118	192	0
TAP	118	192	5
TAP	118	288	0
TAP	118	288	5
TAP	119	0	6
TAP	119	0	7
TAP	119	96	6
TAP	119	96	7
XTP	119	192	0
XTP	119	192	1
XTP	120	0	6
XTP	120	0	7
XTP	120	192	2
XTP	120	192	5
XTP	121	96	3
XTP	121	144	3
XTP	121	192	4
XTP	122	48	1
XTP	122	48	2
XTP	122	128	1
XTP	122	128	2
XTP	122	208	1
XTP	122	208	2
XTP	122	288	1
XTP	122	288	2
XTP	122	368	1
XTP	122	368	2
XTP	123	64	1
XTP	123	64	2
XTP	123	144	1
XTP	123	144	2
XTP	123	224	1
XTP	123	224	2
XTP	124	24	5
XTP	124	24	6
XTP	124	104	5
XTP	124	104	6
XTP	124	184	5
XTP	124	184	6
XTP	124	264	5
XTP	124	264	6
XTP	124	344	5
XTP	124	344	6
XTP	125	40	5
XTP	125	40	6
XST	125	120	5
SCL	125	120	5	96	744	6
XTP	125	120	6
THO	128	192	0	384	C	1	L1
TTP	128	192	1	B	0	L1
TTP	128	192	5	B	0	L1

T_REC_TAP	224
T_REC_BRK	11
T_REC_XTP	105
T_REC_HLD	17
T_REC_XHO	9
T_REC_STR	11
T_REC_BST	0
T_REC_XST	7
T_REC_TTP	31
T_REC_THO	4
T_REC_SLD	18
T_REC_ALL	437
T_NUM_TAP	378
T_NUM_BRK	11
T_NUM_HLD	30
T_NUM_SLD	18
T_NUM_ALL	437
T_JUDGE_TAP	389
T_JUDGE_HLD	201
T_JUDGE_SLD	18
T_JUDGE_ALL	608
TTM_EACHPAIRS	138
TTM_SCR_TAP	189000
TTM_SCR_BRK	28600
TTM_SCR_HLD	30000
TTM_SCR_SLD	27000
TTM_SCR_ALL	274600
TTM_SCR_S	265300
TTM_SCR_SS	273500
TTM_RAT_ACV	10040

