VERSION	0.00.00	1.03.00
FES_MODE	0
BPM_DEF	175.000	175.000	260.000	175.000
MET_DEF	4	4
RESOLUTION	384
CLK_DEF	384
COMPATIBLE_CODE	MA2

BPM	0	0	175.000
BPM	105	0	260.000
MET	0	0	4	4
MET	105	0	4	2
MET	105	192	4	4

TAP	9	0	3
TAP	9	192	3
TAP	9	192	4
TAP	10	0	3
TAP	10	192	3
TAP	10	192	4
TAP	11	0	4
TAP	11	192	3
TAP	11	192	4
TAP	12	0	4
TAP	12	192	3
TAP	12	192	4
TAP	13	0	3
TAP	13	192	2
TAP	13	192	4
TAP	14	0	3
TAP	14	192	2
TAP	14	192	4
TAP	15	0	4
TAP	15	192	3
TAP	15	192	5
TAP	16	0	4
TAP	16	192	3
TAP	16	192	5
XTP	17	0	3
XTP	17	0	4
THO	19	96	0	432	C	0	L1
XTP	21	0	0
XTP	21	0	7
XTP	22	0	0
XTP	22	0	7
XTP	23	0	1
XTP	23	0	6
XTP	24	0	1
XTP	24	0	6
XTP	25	0	2
XTP	25	0	5
XTP	26	0	2
XTP	26	0	5
XTP	27	0	3
XTP	27	0	4
BRK	28	0	3
BRK	28	0	4
TAP	29	0	3
TAP	29	96	3
TAP	29	192	3
TAP	30	0	2
TAP	30	96	2
TAP	30	192	2
TAP	31	0	1
TAP	31	96	1
TAP	31	192	1
TAP	32	0	0
TAP	32	96	0
TAP	32	192	0
TAP	33	0	7
TAP	33	96	7
TAP	33	192	7
TAP	34	0	6
TAP	34	96	6
TAP	34	192	6
TAP	35	0	5
TAP	35	96	5
TAP	35	192	5
TAP	36	0	4
TAP	36	96	4
TAP	36	192	4
TAP	37	0	3
TAP	37	96	3
TAP	37	192	4
TAP	37	288	4
XTP	38	0	3
XTP	38	0	4
TTP	39	0	0	C	1	L1
TAP	41	0	0
TAP	41	96	0
TAP	41	192	0
TAP	42	0	1
TAP	42	96	1
TAP	42	192	1
TAP	43	0	2
TAP	43	96	2
TAP	43	192	2
TAP	44	0	3
TAP	44	96	3
XTP	44	192	3
XTP	44	192	4
TAP	45	0	4
TAP	45	96	4
TAP	45	192	4
TAP	46	0	5
TAP	46	96	5
TAP	46	192	5
TAP	47	0	6
TAP	47	96	6
TAP	47	192	6
BRK	48	0	0
BRK	48	0	7
TAP	49	0	7
TAP	49	96	7
TAP	49	192	7
TAP	50	0	6
TAP	50	96	6
TAP	50	192	6
TAP	51	0	5
TAP	51	96	5
TAP	51	192	5
TAP	52	0	4
TAP	52	96	4
XTP	52	192	3
XTP	52	192	4
TAP	53	0	3
TAP	53	96	3
TAP	53	192	3
TAP	54	0	2
TAP	54	96	2
TAP	54	192	2
TAP	55	0	1
TAP	55	96	1
TAP	55	192	1
BRK	56	0	0
BRK	56	0	7
STR	57	0	1
SI_	57	0	1	96	288	5
STR	59	0	6
SI_	59	0	6	96	288	2
STR	61	0	0
SI_	61	0	0	96	288	4
XHO	62	336	7	528
TTP	65	0	0	B	0	L1
TTP	65	0	1	B	0	L1
TTP	66	0	6	B	0	L1
TTP	66	0	7	B	0	L1
TTP	67	0	0	B	0	L1
TTP	67	0	1	B	0	L1
THO	68	0	0	192	C	0	L1
TTP	69	0	0	B	0	L1
TTP	69	0	1	B	0	L1
TTP	70	0	6	B	0	L1
TTP	70	0	7	B	0	L1
THO	71	0	0	336	C	1	L1
TAP	73	0	0
TAP	73	96	0
TAP	73	192	0
TAP	74	0	1
TAP	74	96	1
TAP	74	192	1
TAP	75	0	2
TAP	75	96	2
TAP	75	192	2
TAP	76	0	3
TAP	76	96	3
TAP	76	192	3
TAP	76	192	4
TAP	77	0	4
TAP	77	96	4
TAP	77	192	4
TAP	78	0	5
TAP	78	96	5
TAP	78	192	5
TAP	79	0	6
TAP	79	96	6
TAP	79	192	6
XTP	80	0	0
XTP	80	0	7
XTP	80	192	0
XTP	80	192	7
STR	81	0	0
SI_	81	0	0	96	288	4
STR	83	0	7
SI_	83	0	7	96	288	3
STR	85	0	1
SI_	85	0	1	96	288	4
STR	87	0	6
SI_	87	0	6	96	288	3
TAP	89	0	3
TAP	89	192	3
TAP	90	0	3
TAP	90	192	3
TAP	91	0	4
TAP	91	192	4
TAP	92	0	4
TAP	92	192	4
TAP	93	0	3
TAP	93	96	3
TAP	93	192	3
TAP	94	0	3
TAP	94	96	3
TAP	94	192	3
TAP	95	0	4
TAP	95	96	4
TAP	95	192	4
TAP	96	0	4
TAP	96	96	4
TAP	96	192	4
HLD	97	0	3	384
HLD	97	0	4	384
HLD	99	0	2	384
HLD	99	0	5	384
HLD	101	0	1	384
HLD	101	0	6	384
TTP	103	240	0	C	1	L1
TAP	105	192	0
TAP	105	288	0
TAP	106	0	0
TAP	106	192	1
TAP	106	288	1
TAP	107	0	1
TAP	107	192	2
TAP	107	288	2
TAP	108	0	2
TAP	108	192	3
TAP	108	288	3
TAP	109	0	3
TAP	109	192	4
TAP	109	288	4
TAP	110	0	4
TAP	110	192	5
TAP	110	288	5
TAP	111	0	5
XHO	111	192	6	384
XHO	111	192	7	384
TAP	113	192	7
TAP	113	288	7
TAP	114	0	7
TAP	114	192	6
TAP	114	288	6
TAP	115	0	6
TAP	115	192	5
TAP	115	288	5
TAP	116	0	5
TAP	116	192	4
TAP	116	288	4
TAP	117	0	4
TAP	117	192	3
TAP	117	288	3
TAP	118	0	3
TAP	118	192	2
TAP	118	288	2
TAP	119	0	2
XTP	119	192	0
XTP	119	192	1
XTP	120	0	6
XTP	120	0	7
XTP	120	192	0
XTP	120	192	1
XTP	122	48	0
XTP	122	144	0
XTP	122	240	0
XTP	122	336	0
XTP	123	48	0
XTP	123	144	0
XTP	123	240	0
XTP	124	48	7
XTP	124	144	7
XTP	124	240	7
XTP	124	336	7
XTP	125	48	7
XTP	125	144	7
XTP	125	240	7
THO	126	48	0	1296	C	1	L1

T_REC_TAP	170
T_REC_BRK	6
T_REC_XTP	46
T_REC_HLD	6
T_REC_XHO	3
T_REC_STR	7
T_REC_BST	0
T_REC_XST	0
T_REC_TTP	12
T_REC_THO	4
T_REC_SLD	7
T_REC_ALL	261
T_NUM_TAP	235
T_NUM_BRK	6
T_NUM_HLD	13
T_NUM_SLD	7
T_NUM_ALL	261
T_JUDGE_TAP	241
T_JUDGE_HLD	101
T_JUDGE_SLD	7
T_JUDGE_ALL	349
TTM_EACHPAIRS	32
TTM_SCR_TAP	117500
TTM_SCR_BRK	15600
TTM_SCR_HLD	13000
TTM_SCR_SLD	10500
TTM_SCR_ALL	156600
TTM_SCR_S	151350
TTM_SCR_SS	156000
TTM_RAT_ACV	10038

